  0
SECTION
  2
HEADER
  9
$ACADVER
  1
AC1009
  9
$INSBASE
 10
402.590624
 20
-1.041018
 30
0.0
  9
$EXTMIN
 10
82.165896
 20
-0.236036
 30
0.0
  9
$EXTMAX
 10
125.167324
 20
132.763964
 30
0.0
  9
$LIMMIN
 10
-407.970438
 20
-367.832444
  9
$LIMMAX
 10
429.804077
 20
234.370848
  9
$ORTHOMODE
 70
     0
  9
$REGENMODE
 70
     1
  9
$FILLMODE
 70
     1
  9
$QTEXTMODE
 70
     0
  9
$MIRRTEXT
 70
     1
  9
$DRAGMODE
 70
     2
  9
$LTSCALE
 40
10.0
  9
$OSMODE
 70
    35
  9
$ATTMODE
 70
     1
  9
$TEXTSIZE
 40
6.0
  9
$TRACEWID
 40
1.0
  9
$TEXTSTYLE
  7
ROMANS
  9
$CLAYER
  8
ALPHA
  9
$CELTYPE
  6
BYLAYER
  9
$CECOLOR
 62
   256
  9
$DIMSCALE
 40
1.0
  9
$DIMASZ
 40
5.0
  9
$DIMEXO
 40
2.0
  9
$DIMDLI
 40
0.38
  9
$DIMRND
 40
0.0
  9
$DIMDLE
 40
0.0
  9
$DIMEXE
 40
2.5
  9
$DIMTP
 40
0.0
  9
$DIMTM
 40
0.0
  9
$DIMTXT
 40
2.5
  9
$DIMCEN
 40
0.0
  9
$DIMTSZ
 40
0.0
  9
$DIMTOL
 70
     0
  9
$DIMLIM
 70
     0
  9
$DIMTIH
 70
     1
  9
$DIMTOH
 70
     1
  9
$DIMSE1
 70
     0
  9
$DIMSE2
 70
     0
  9
$DIMTAD
 70
     1
  9
$DIMZIN
 70
    12
  9
$DIMBLK
  1
OPEN30
  9
$DIMASO
 70
     1
  9
$DIMSHO
 70
     1
  9
$DIMPOST
  1

  9
$DIMAPOST
  1

  9
$DIMALT
 70
     0
  9
$DIMALTD
 70
     2
  9
$DIMALTF
 40
25.4
  9
$DIMLFAC
 40
1.0
  9
$DIMTOFL
 70
     0
  9
$DIMTVP
 40
0.0
  9
$DIMTIX
 70
     0
  9
$DIMSOXD
 70
     0
  9
$DIMSAH
 70
     0
  9
$DIMBLK1
  1

  9
$DIMBLK2
  1

  9
$DIMSTYLE
  2
SC_DEFAUT
  9
$DIMCLRD
 70
     0
  9
$DIMCLRE
 70
     0
  9
$DIMCLRT
 70
     0
  9
$DIMTFAC
 40
1.0
  9
$DIMGAP
 40
2.0
  9
$LUNITS
 70
     2
  9
$LUPREC
 70
     1
  9
$SKETCHINC
 40
0.1
  9
$FILLETRAD
 40
0.0
  9
$AUNITS
 70
     0
  9
$AUPREC
 70
     0
  9
$MENU
  1
acad
  9
$ELEVATION
 40
0.0
  9
$PELEVATION
 40
0.0
  9
$THICKNESS
 40
0.0
  9
$LIMCHECK
 70
     0
  9
$BLIPMODE
 70
     0
  9
$CHAMFERA
 40
0.0
  9
$CHAMFERB
 40
0.0
  9
$SKPOLY
 70
     0
  9
$TDCREATE
 40
2450373.687919
  9
$TDUPDATE
 40
2453032.653131
  9
$TDINDWG
 40
1.10861
  9
$TDUSRTIMER
 40
1.10861
  9
$USRTIMER
 70
     1
  9
$ANGBASE
 50
0.0
  9
$ANGDIR
 70
     0
  9
$PDMODE
 70
    32
  9
$PDSIZE
 40
0.0
  9
$PLINEWID
 40
0.0
  9
$COORDS
 70
     1
  9
$SPLFRAME
 70
     0
  9
$SPLINETYPE
 70
     6
  9
$SPLINESEGS
 70
     8
  9
$ATTDIA
 70
     0
  9
$ATTREQ
 70
     1
  9
$HANDLING
 70
     1
  9
$HANDSEED
  5
CFA5
  9
$SURFTAB1
 70
     6
  9
$SURFTAB2
 70
     6
  9
$SURFTYPE
 70
     6
  9
$SURFU
 70
     6
  9
$SURFV
 70
     6
  9
$UCSNAME
  2

  9
$UCSORG
 10
0.0
 20
0.0
 30
0.0
  9
$UCSXDIR
 10
1.0
 20
0.0
 30
0.0
  9
$UCSYDIR
 10
0.0
 20
1.0
 30
0.0
  9
$PUCSNAME
  2

  9
$PUCSORG
 10
0.0
 20
0.0
 30
0.0
  9
$PUCSXDIR
 10
1.0
 20
0.0
 30
0.0
  9
$PUCSYDIR
 10
0.0
 20
1.0
 30
0.0
  9
$USERI1
 70
     0
  9
$USERI2
 70
     0
  9
$USERI3
 70
     0
  9
$USERI4
 70
     0
  9
$USERI5
 70
     0
  9
$USERR1
 40
0.0
  9
$USERR2
 40
0.0
  9
$USERR3
 40
0.0
  9
$USERR4
 40
0.0
  9
$USERR5
 40
0.0
  9
$WORLDVIEW
 70
     1
  9
$SHADEDGE
 70
     3
  9
$SHADEDIF
 70
    70
  9
$TILEMODE
 70
     1
  9
$MAXACTVP
 70
    16
  9
$PLIMCHECK
 70
     0
  9
$PEXTMIN
 10
-1.452248
 20
-0.437698
 30
0.0
  9
$PEXTMAX
 10
12.749749
 20
8.310198
 30
0.0
  9
$PLIMMIN
 10
0.0
 20
0.0
  9
$PLIMMAX
 10
12.0
 20
9.0
  9
$UNITMODE
 70
     0
  9
$VISRETAIN
 70
     0
  9
$PLINEGEN
 70
     0
  9
$PSLTSCALE
 70
     0
  0
ENDSEC
  0
SECTION
  2
TABLES
  0
TABLE
  2
VPORT
 70
     2
  0
VPORT
  2
*ACTIVE
 70
     0
 10
0.0
 20
0.0
 11
1.0
 21
1.0
 12
103.660567
 22
66.27843
 13
0.0
 23
0.0
 14
1.0
 24
1.0
 15
10.0
 25
10.0
 16
0.0
 26
0.0
 36
1.0
 17
0.0
 27
0.0
 37
0.0
 40
134.013551
 41
1.466346
 42
50.0
 43
0.0
 44
0.0
 50
0.0
 51
0.0
 71
     0
 72
   100
 73
     1
 74
     0
 75
     0
 76
     0
 77
     0
 78
     0
  0
ENDTAB
  0
TABLE
  2
LTYPE
 70
     2
  0
LTYPE
  2
CONTINUOUS
 70
     0
  3
Solid line
 72
    65
 73
     0
 40
0.0
  0
LTYPE
  2
AXES2
 70
     0
  3
___ _ ___ _ ___ _ ___ _ ___ _ ___ _ ___ _ ___ _
 72
    65
 73
     4
 40
1.125
 49
0.75
 49
-0.125
 49
0.125
 49
-0.125
  0
ENDTAB
  0
TABLE
  2
LAYER
 70
     5
  0
LAYER
  2
0
 70
     0
 62
   255
  6
CONTINUOUS
  0
LAYER
  2
COTATION1
 70
     0
 62
     2
  6
CONTINUOUS
  0
LAYER
  2
AXE
 70
     0
 62
    80
  6
AXES2
  0
LAYER
  2
DEFPOINTS
 70
     0
 62
     7
  6
CONTINUOUS
  0
LAYER
  2
ALPHA
 70
     0
 62
   254
  6
CONTINUOUS
  0
ENDTAB
  0
TABLE
  2
STYLE
 70
     2
  0
STYLE
  2
ROMANS
 70
     0
 40
0.0
 41
1.0
 50
0.0
 71
     0
 42
6.0
  3
romans
  4

  0
STYLE
  2
STANDARD
 70
     0
 40
0.0
 41
1.0
 50
0.0
 71
     0
 42
0.2
  3
txt
  4

  0
ENDTAB
  0
TABLE
  2
VIEW
 70
     0
  0
ENDTAB
  0
TABLE
  2
UCS
 70
     0
  0
ENDTAB
  0
TABLE
  2
APPID
 70
     1
  0
APPID
  2
ACAD
 70
     0
  0
ENDTAB
  0
TABLE
  2
DIMSTYLE
 70
     2
  0
DIMSTYLE
  2
SC_DEFAUT
 70
     0
  3

  4

  5
OPEN30
  6

  7

 40
1.0
 41
5.0
 42
2.0
 43
0.38
 44
2.5
 45
0.0
 46
0.0
 47
0.0
 48
0.0
140
2.5
141
0.0
142
0.0
143
25.4
144
1.0
145
0.0
146
1.0
147
2.0
 71
     0
 72
     0
 73
     1
 74
     1
 75
     0
 76
     0
 77
     1
 78
    12
170
     0
171
     2
172
     0
173
     0
174
     0
175
     0
176
     0
177
     0
178
     0
  0
DIMSTYLE
  2
STANDARD
 70
     0
  3

  4

  5

  6

  7

 40
1.0
 41
0.18
 42
0.0625
 43
0.38
 44
0.18
 45
0.0
 46
0.0
 47
0.0
 48
0.0
140
0.18
141
0.09
142
0.0
143
25.4
144
1.0
145
0.0
146
1.0
147
0.09
 71
     0
 72
     0
 73
     1
 74
     1
 75
     0
 76
     0
 77
     0
 78
     0
170
     0
171
     2
172
     0
173
     0
174
     0
175
     0
176
     0
177
     0
178
     0
  0
ENDTAB
  0
ENDSEC
  0
SECTION
  2
BLOCKS
  0
BLOCK
  8
0
  2
$MODEL_SPACE
 70
     0
 10
0.0
 20
0.0
 30
0.0
  3
$MODEL_SPACE
  1

  0
ENDBLK
  5
CF9E
  8
0
  0
BLOCK
 67
     1
  8
0
  2
$PAPER_SPACE
 70
     0
 10
0.0
 20
0.0
 30
0.0
  3
$PAPER_SPACE
  1

  0
ENDBLK
  5
CF9C
 67
     1
  8
0
  0
BLOCK
  8
0
  2
COTE
 70
     0
 10
0.0
 20
0.0
 30
0.0
  3
COTE
  1

  0
ENDBLK
  5
F
  8
0
  0
BLOCK
  8
0
  2
FOND
 70
     0
 10
0.0
 20
0.0
 30
0.0
  3
FOND
  1

  0
ENDBLK
  5
75
  8
0
  0
BLOCK
  8
0
  2
_OPEN30
 70
     0
 10
0.0
 20
0.0
 30
0.0
  3
_OPEN30
  1

  0
LINE
  5
4B05
  8
COTATION1
 62
     0
 10
-1.0
 20
0.267949
 30
0.0
 11
0.0
 21
0.0
 31
0.0
1001
ACAD
1000
RTLwPs
1070
   158
  0
LINE
  5
4B06
  8
COTATION1
 62
     0
 10
0.0
 20
0.0
 30
0.0
 11
-1.0
 21
-0.267949
 31
0.0
1001
ACAD
1000
RTLwPs
1070
   158
  0
LINE
  5
4B07
  8
COTATION1
 62
     0
 10
0.0
 20
0.0
 30
0.0
 11
-1.0
 21
0.0
 31
0.0
1001
ACAD
1000
RTLwPs
1070
   158
  0
ENDBLK
  5
4B09
  8
0
  0
BLOCK
  8
0
  2
*D3
 70
     1
 10
0.0
 20
0.0
 30
0.0
  3
*D3
  1

  0
LINE
  5
CEB4
  8
COTATION1
 62
     0
 10
87.165896
 20
107.263964
 30
0.0
 11
87.165896
 21
130.763964
 31
0.0
1001
ACAD
1000
RTLwPs
1070
   158
  0
LINE
  5
CEB5
  8
COTATION1
 62
     0
 10
103.165896
 20
107.263964
 30
0.0
 11
103.165896
 21
130.763964
 31
0.0
1001
ACAD
1000
RTLwPs
1070
   158
  0
LINE
  5
CEB6
  8
COTATION1
 62
     0
 10
92.165896
 20
128.263964
 30
0.0
 11
98.165896
 21
128.263964
 31
0.0
1001
ACAD
1000
RTLwPs
1070
   158
  0
INSERT
  5
CEB7
  8
COTATION1
 62
     0
  2
_OPEN30
 10
87.165896
 20
128.263964
 30
0.0
 41
5.0
 42
5.0
 43
5.0
 50
180.0
1001
ACAD
1000
RTLwPs
1070
   158
  0
INSERT
  5
CEB8
  8
COTATION1
 62
     0
  2
_OPEN30
 10
103.165896
 20
128.263964
 30
0.0
 41
5.0
 42
5.0
 43
5.0
1001
ACAD
1000
RTLwPs
1070
   158
  0
TEXT
  5
CEB9
  8
COTATION1
 62
     0
 10
91.773038
 20
130.263964
 30
0.0
 40
2.5
  1
%%c
1001
ACAD
1000
MTEXTBEGIN
1070
    73
1070
     1
1070
    44
1040
1.0
1070
    74
1070
     0
1000
MTEXTEND
  0
TEXT
  5
CF6F
  8
COTATION1
 62
     0
 10
94.034943
 20
130.263964
 30
0.0
 40
2.5
  1
16
1001
ACAD
1000
R13OBJECT
1002
{
1005
CEB9
1002
}
  0
POINT
  5
CEBA
  8
DEFPOINTS
 62
     0
 10
87.165896
 20
105.263964
 30
0.0
  0
POINT
  5
CEBB
  8
DEFPOINTS
 62
     0
 10
103.165896
 20
105.263964
 30
0.0
  0
POINT
  5
CEBC
  8
DEFPOINTS
 62
     0
 10
103.165896
 20
128.263964
 30
0.0
  0
ENDBLK
  5
B44E
  8
0
  0
BLOCK
  8
0
  2
*D4
 70
     1
 10
0.0
 20
0.0
 30
0.0
  3
*D4
  1

  0
LINE
  5
CEA0
  8
COTATION1
 62
     0
 10
97.165896
 20
113.263964
 30
0.0
 11
122.845896
 21
113.263964
 31
0.0
1001
ACAD
1000
RTLwPs
1070
   158
  0
LINE
  5
CEA1
  8
COTATION1
 62
     0
 10
99.665896
 20
9.763964
 30
0.0
 11
122.845896
 21
9.763964
 31
0.0
1001
ACAD
1000
RTLwPs
1070
   158
  0
LINE
  5
CEA2
  8
COTATION1
 62
     0
 10
120.345896
 20
108.263964
 30
0.0
 11
120.345896
 21
64.763964
 31
0.0
1001
ACAD
1000
RTLwPs
1070
   158
  0
LINE
  5
CEA3
  8
COTATION1
 62
     0
 10
120.345896
 20
14.763964
 30
0.0
 11
120.345896
 21
58.263964
 31
0.0
1001
ACAD
1000
RTLwPs
1070
   158
  0
INSERT
  5
CEA4
  8
COTATION1
 62
     0
  2
_OPEN30
 10
120.345896
 20
113.263964
 30
0.0
 41
5.0
 42
5.0
 43
5.0
 50
90.0
1001
ACAD
1000
RTLwPs
1070
   158
  0
INSERT
  5
CEA5
  8
COTATION1
 62
     0
  2
_OPEN30
 10
120.345896
 20
9.763964
 30
0.0
 41
5.0
 42
5.0
 43
5.0
 50
270.0
1001
ACAD
1000
RTLwPs
1070
   158
  0
TEXT
  5
CEA6
  8
COTATION1
 62
     0
 10
114.810181
 20
60.263964
 30
0.0
 40
2.5
  1
103.5
1001
ACAD
1000
MTEXTBEGIN
1070
    73
1070
     1
1070
    44
1040
1.0
1070
    74
1070
     0
1000
MTEXTEND
  0
POINT
  5
CEA7
  8
DEFPOINTS
 62
     0
 10
95.165896
 20
113.263964
 30
0.0
  0
POINT
  5
CEA8
  8
DEFPOINTS
 62
     0
 10
97.665896
 20
9.763964
 30
0.0
  0
POINT
  5
CEA9
  8
DEFPOINTS
 62
     0
 10
120.345896
 20
9.763964
 30
0.0
  0
ENDBLK
  5
B45B
  8
0
  0
ENDSEC
  0
SECTION
  2
ENTITIES
  0
INSERT
  5
A
  8
0
  2
COTE
 10
0.0
 20
0.0
 30
0.0
  0
INSERT
  5
17
  8
0
  2
COTE
 10
284.010391
 20
6.373258
 30
0.0
  0
INSERT
  5
72
  8
0
  2
FOND
 10
0.0
 20
0.0
 30
0.0
  0
LINE
  5
B43D
  8
AXE
 10
82.165896
 20
105.263964
 30
0.0
 11
113.165896
 21
105.263964
 31
0.0
  0
TEXT
  5
B43E
  8
AXE
 10
109.118276
 20
106.263964
 30
0.0
 40
5.0
  1
X
 72
     2
 11
113.165896
 21
106.263964
 31
0.0
  0
LINE
  5
B43F
  8
AXE
 10
95.165896
 20
-0.236036
 30
0.0
 11
95.165896
 21
118.263964
 31
0.0
  0
DIMENSION
  5
B440
  8
COTATION1
  2
*D3
 10
103.165896
 20
128.263964
 30
0.0
 11
95.165896
 21
131.513964
 31
0.0
  1
%%c<>
 13
87.165896
 23
105.263964
 33
0.0
 14
103.165896
 24
105.263964
 34
0.0
  0
DIMENSION
  5
B441
  8
COTATION1
  2
*D4
 10
120.345896
 20
9.763964
 30
0.0
 11
120.345896
 21
61.513964
 31
0.0
 13
95.165896
 23
113.263964
 33
0.0
 14
97.665896
 24
9.763964
 34
0.0
 50
90.0
  0
LINE
  5
B442
  8
AXE
 10
84.990006
 20
66.763964
 30
0.0
 11
105.341785
 21
66.763964
 31
0.0
  0
TEXT
  5
B483
  8
AXE
 10
90.118276
 20
-0.236036
 30
0.0
 40
5.0
  1
Y
 72
     2
 11
94.165896
 21
-0.236036
 31
0.0
  0
ARC
  5
C706
  8
ALPHA
 10
98.515896
 20
80.263964
 30
0.0
 40
0.15
 50
315.0
 51
45.0
  0
ARC
  5
C707
  8
ALPHA
 10
91.815896
 20
80.263964
 30
0.0
 40
0.15
 50
135.0
 51
225.0
  0
ARC
  5
C708
  8
ALPHA
 10
107.665896
 20
79.842781
 30
0.0
 40
20.0
 50
173.011816
 51
180.0
  0
ARC
  5
C70B
  8
ALPHA
 10
82.665896
 20
79.842781
 30
0.0
 40
20.0
 50
0.0
 51
6.988184
  0
ARC
  5
C71B
  8
ALPHA
 10
98.515896
 20
33.263964
 30
0.0
 40
0.15
 50
315.0
 51
45.0
  0
ARC
  5
C71C
  8
ALPHA
 10
91.815896
 20
33.263964
 30
0.0
 40
0.15
 50
135.0
 51
225.0
  0
LINE
  5
C71D
  8
ALPHA
 10
87.665896
 20
79.842781
 30
0.0
 11
87.665896
 21
14.763964
 31
0.0
  0
LINE
  5
C71E
  8
ALPHA
 10
102.665896
 20
14.763964
 30
0.0
 11
102.665896
 21
79.842781
 31
0.0
  0
ARC
  5
C71F
  8
ALPHA
 10
97.665896
 20
14.763964
 30
0.0
 40
5.0
 50
270.0
 51
0.0
  0
ARC
  5
C720
  8
ALPHA
 10
92.665896
 20
14.763964
 30
0.0
 40
5.0
 50
180.0
 51
270.0
  0
LINE
  5
C721
  8
ALPHA
 10
98.292672
 20
21.699319
 30
0.0
 11
98.621962
 21
21.37003
 31
0.0
  0
LINE
  5
C722
  8
ALPHA
 10
91.709829
 20
21.37003
 30
0.0
 11
92.039119
 21
21.699319
 31
0.0
  0
ARC
  5
C723
  8
ALPHA
 10
95.165896
 20
21.763964
 30
0.0
 40
3.5
 50
186.842628
 51
353.157372
  0
ARC
  5
C724
  8
ALPHA
 10
91.815896
 20
21.263964
 30
0.0
 40
0.15
 50
135.0
 51
146.392657
  0
LINE
  5
C725
  8
ALPHA
 10
92.665896
 20
9.763964
 30
0.0
 11
97.665896
 21
9.763964
 31
0.0
  0
ARC
  5
C726
  8
ALPHA
 10
98.515896
 20
21.263964
 30
0.0
 40
0.15
 50
33.607343
 51
45.0
  0
LINE
  5
C727
  8
ALPHA
 10
98.292672
 20
30.699319
 30
0.0
 11
98.621962
 21
30.37003
 31
0.0
  0
LINE
  5
C728
  8
ALPHA
 10
98.292672
 20
31.699319
 30
0.0
 11
98.621962
 21
31.37003
 31
0.0
  0
LINE
  5
C729
  8
ALPHA
 10
98.292672
 20
32.699319
 30
0.0
 11
98.621962
 21
32.37003
 31
0.0
  0
LINE
  5
C72A
  8
ALPHA
 10
98.621962
 20
33.157898
 30
0.0
 11
98.292672
 21
32.828608
 31
0.0
  0
LINE
  5
C72B
  8
ALPHA
 10
98.621962
 20
32.157898
 30
0.0
 11
98.292672
 21
31.828608
 31
0.0
  0
LINE
  5
C72C
  8
ALPHA
 10
98.621962
 20
31.157898
 30
0.0
 11
98.292672
 21
30.828608
 31
0.0
  0
LINE
  5
C72D
  8
ALPHA
 10
98.621962
 20
30.157898
 30
0.0
 11
98.292672
 21
29.828608
 31
0.0
  0
LINE
  5
C72E
  8
ALPHA
 10
98.292672
 20
24.699319
 30
0.0
 11
98.621962
 21
24.37003
 31
0.0
  0
LINE
  5
C72F
  8
ALPHA
 10
98.292672
 20
25.699319
 30
0.0
 11
98.621962
 21
25.37003
 31
0.0
  0
LINE
  5
C730
  8
ALPHA
 10
98.292672
 20
26.699319
 30
0.0
 11
98.621962
 21
26.37003
 31
0.0
  0
LINE
  5
C731
  8
ALPHA
 10
98.292672
 20
27.699319
 30
0.0
 11
98.621962
 21
27.37003
 31
0.0
  0
LINE
  5
C732
  8
ALPHA
 10
98.292672
 20
28.699319
 30
0.0
 11
98.621962
 21
28.37003
 31
0.0
  0
LINE
  5
C733
  8
ALPHA
 10
98.292672
 20
29.699319
 30
0.0
 11
98.621962
 21
29.37003
 31
0.0
  0
LINE
  5
C734
  8
ALPHA
 10
98.621962
 20
29.157898
 30
0.0
 11
98.292672
 21
28.828608
 31
0.0
  0
LINE
  5
C735
  8
ALPHA
 10
98.621962
 20
28.157898
 30
0.0
 11
98.292672
 21
27.828608
 31
0.0
  0
LINE
  5
C736
  8
ALPHA
 10
98.621962
 20
27.157898
 30
0.0
 11
98.292672
 21
26.828608
 31
0.0
  0
LINE
  5
C737
  8
ALPHA
 10
98.621962
 20
26.157898
 30
0.0
 11
98.292672
 21
25.828608
 31
0.0
  0
LINE
  5
C738
  8
ALPHA
 10
98.621962
 20
25.157898
 30
0.0
 11
98.292672
 21
24.828608
 31
0.0
  0
LINE
  5
C739
  8
ALPHA
 10
98.292672
 20
22.699319
 30
0.0
 11
98.621962
 21
22.37003
 31
0.0
  0
LINE
  5
C73A
  8
ALPHA
 10
98.292672
 20
23.699319
 30
0.0
 11
98.621962
 21
23.37003
 31
0.0
  0
LINE
  5
C73B
  8
ALPHA
 10
98.621962
 20
23.157898
 30
0.0
 11
98.292672
 21
22.828608
 31
0.0
  0
LINE
  5
C73C
  8
ALPHA
 10
98.621962
 20
22.157898
 30
0.0
 11
98.292672
 21
21.828608
 31
0.0
  0
LINE
  5
C73D
  8
ALPHA
 10
98.621962
 20
24.157898
 30
0.0
 11
98.292672
 21
23.828608
 31
0.0
  0
ARC
  5
C73E
  8
ALPHA
 10
98.357317
 20
30.763964
 30
0.0
 40
0.091421
 50
135.0
 51
225.0
  0
ARC
  5
C73F
  8
ALPHA
 10
98.357317
 20
31.763964
 30
0.0
 40
0.091421
 50
135.0
 51
225.0
  0
ARC
  5
C740
  8
ALPHA
 10
98.357317
 20
32.763964
 30
0.0
 40
0.091421
 50
135.0
 51
225.0
  0
LINE
  5
C741
  8
ALPHA
 10
92.039119
 20
29.828608
 30
0.0
 11
91.709829
 21
30.157898
 31
0.0
  0
LINE
  5
C742
  8
ALPHA
 10
92.039119
 20
30.828608
 30
0.0
 11
91.709829
 21
31.157898
 31
0.0
  0
LINE
  5
C743
  8
ALPHA
 10
92.039119
 20
31.828608
 30
0.0
 11
91.709829
 21
32.157898
 31
0.0
  0
LINE
  5
C744
  8
ALPHA
 10
92.039119
 20
32.828608
 30
0.0
 11
91.709829
 21
33.157898
 31
0.0
  0
LINE
  5
C745
  8
ALPHA
 10
91.709829
 20
32.37003
 30
0.0
 11
92.039119
 21
32.699319
 31
0.0
  0
LINE
  5
C746
  8
ALPHA
 10
91.709829
 20
31.37003
 30
0.0
 11
92.039119
 21
31.699319
 31
0.0
  0
LINE
  5
C747
  8
ALPHA
 10
91.709829
 20
30.37003
 30
0.0
 11
92.039119
 21
30.699319
 31
0.0
  0
ARC
  5
C748
  8
ALPHA
 10
91.815896
 20
30.263964
 30
0.0
 40
0.15
 50
135.0
 51
225.0
  0
ARC
  5
C749
  8
ALPHA
 10
91.815896
 20
31.263964
 30
0.0
 40
0.15
 50
135.0
 51
225.0
  0
ARC
  5
C74A
  8
ALPHA
 10
91.815896
 20
32.263964
 30
0.0
 40
0.15
 50
135.0
 51
225.0
  0
ARC
  5
C74B
  8
ALPHA
 10
91.974474
 20
30.763964
 30
0.0
 40
0.091421
 50
315.0
 51
45.0
  0
ARC
  5
C74C
  8
ALPHA
 10
91.974474
 20
31.763964
 30
0.0
 40
0.091421
 50
315.0
 51
45.0
  0
ARC
  5
C74D
  8
ALPHA
 10
91.974474
 20
32.763964
 30
0.0
 40
0.091421
 50
315.0
 51
45.0
  0
ARC
  5
C74E
  8
ALPHA
 10
98.357317
 20
24.763964
 30
0.0
 40
0.091421
 50
135.0
 51
225.0
  0
ARC
  5
C74F
  8
ALPHA
 10
98.357317
 20
25.763964
 30
0.0
 40
0.091421
 50
135.0
 51
225.0
  0
ARC
  5
C750
  8
ALPHA
 10
98.357317
 20
26.763964
 30
0.0
 40
0.091421
 50
135.0
 51
225.0
  0
ARC
  5
C751
  8
ALPHA
 10
98.357317
 20
27.763964
 30
0.0
 40
0.091421
 50
135.0
 51
225.0
  0
ARC
  5
C752
  8
ALPHA
 10
98.357317
 20
28.763964
 30
0.0
 40
0.091421
 50
135.0
 51
225.0
  0
ARC
  5
C753
  8
ALPHA
 10
98.357317
 20
21.763964
 30
0.0
 40
0.091421
 50
135.0
 51
225.0
  0
ARC
  5
C754
  8
ALPHA
 10
98.357317
 20
22.763964
 30
0.0
 40
0.091421
 50
135.0
 51
225.0
  0
ARC
  5
C755
  8
ALPHA
 10
98.357317
 20
23.763964
 30
0.0
 40
0.091421
 50
135.0
 51
225.0
  0
LINE
  5
C756
  8
ALPHA
 10
92.039119
 20
24.828608
 30
0.0
 11
91.709829
 21
25.157898
 31
0.0
  0
LINE
  5
C757
  8
ALPHA
 10
92.039119
 20
25.828608
 30
0.0
 11
91.709829
 21
26.157898
 31
0.0
  0
LINE
  5
C758
  8
ALPHA
 10
92.039119
 20
26.828608
 30
0.0
 11
91.709829
 21
27.157898
 31
0.0
  0
LINE
  5
C759
  8
ALPHA
 10
92.039119
 20
27.828608
 30
0.0
 11
91.709829
 21
28.157898
 31
0.0
  0
LINE
  5
C75A
  8
ALPHA
 10
92.039119
 20
28.828608
 30
0.0
 11
91.709829
 21
29.157898
 31
0.0
  0
LINE
  5
C75B
  8
ALPHA
 10
91.709829
 20
29.37003
 30
0.0
 11
92.039119
 21
29.699319
 31
0.0
  0
LINE
  5
C75C
  8
ALPHA
 10
91.709829
 20
28.37003
 30
0.0
 11
92.039119
 21
28.699319
 31
0.0
  0
LINE
  5
C75D
  8
ALPHA
 10
91.709829
 20
27.37003
 30
0.0
 11
92.039119
 21
27.699319
 31
0.0
  0
LINE
  5
C75E
  8
ALPHA
 10
91.709829
 20
26.37003
 30
0.0
 11
92.039119
 21
26.699319
 31
0.0
  0
LINE
  5
C75F
  8
ALPHA
 10
91.709829
 20
25.37003
 30
0.0
 11
92.039119
 21
25.699319
 31
0.0
  0
LINE
  5
C760
  8
ALPHA
 10
91.709829
 20
24.37003
 30
0.0
 11
92.039119
 21
24.699319
 31
0.0
  0
ARC
  5
C761
  8
ALPHA
 10
91.815896
 20
24.263964
 30
0.0
 40
0.15
 50
135.0
 51
225.0
  0
ARC
  5
C762
  8
ALPHA
 10
91.815896
 20
25.263964
 30
0.0
 40
0.15
 50
135.0
 51
225.0
  0
ARC
  5
C763
  8
ALPHA
 10
91.815896
 20
26.263964
 30
0.0
 40
0.15
 50
135.0
 51
225.0
  0
ARC
  5
C764
  8
ALPHA
 10
91.815896
 20
27.263964
 30
0.0
 40
0.15
 50
135.0
 51
225.0
  0
ARC
  5
C765
  8
ALPHA
 10
91.815896
 20
28.263964
 30
0.0
 40
0.15
 50
135.0
 51
225.0
  0
ARC
  5
C766
  8
ALPHA
 10
91.815896
 20
29.263964
 30
0.0
 40
0.15
 50
135.0
 51
225.0
  0
ARC
  5
C767
  8
ALPHA
 10
91.974474
 20
24.763964
 30
0.0
 40
0.091421
 50
315.0
 51
45.0
  0
ARC
  5
C768
  8
ALPHA
 10
91.974474
 20
25.763964
 30
0.0
 40
0.091421
 50
315.0
 51
45.0
  0
ARC
  5
C769
  8
ALPHA
 10
91.974474
 20
26.763964
 30
0.0
 40
0.091421
 50
315.0
 51
45.0
  0
ARC
  5
C76A
  8
ALPHA
 10
91.974474
 20
27.763964
 30
0.0
 40
0.091421
 50
315.0
 51
45.0
  0
ARC
  5
C76B
  8
ALPHA
 10
91.974474
 20
28.763964
 30
0.0
 40
0.091421
 50
315.0
 51
45.0
  0
LINE
  5
C76C
  8
ALPHA
 10
92.039119
 20
21.828608
 30
0.0
 11
91.709829
 21
22.157898
 31
0.0
  0
LINE
  5
C76D
  8
ALPHA
 10
92.039119
 20
22.828608
 30
0.0
 11
91.709829
 21
23.157898
 31
0.0
  0
LINE
  5
C76E
  8
ALPHA
 10
91.709829
 20
23.37003
 30
0.0
 11
92.039119
 21
23.699319
 31
0.0
  0
LINE
  5
C76F
  8
ALPHA
 10
91.709829
 20
22.37003
 30
0.0
 11
92.039119
 21
22.699319
 31
0.0
  0
ARC
  5
C770
  8
ALPHA
 10
91.815896
 20
22.263964
 30
0.0
 40
0.15
 50
135.0
 51
225.0
  0
ARC
  5
C771
  8
ALPHA
 10
91.815896
 20
23.263964
 30
0.0
 40
0.15
 50
135.0
 51
225.0
  0
ARC
  5
C772
  8
ALPHA
 10
91.974474
 20
22.763964
 30
0.0
 40
0.091421
 50
315.0
 51
45.0
  0
ARC
  5
C773
  8
ALPHA
 10
91.974474
 20
23.763964
 30
0.0
 40
0.091421
 50
315.0
 51
45.0
  0
ARC
  5
C774
  8
ALPHA
 10
91.974474
 20
21.763964
 30
0.0
 40
0.091421
 50
315.0
 51
45.0
  0
LINE
  5
C775
  8
ALPHA
 10
92.039119
 20
23.828608
 30
0.0
 11
91.709829
 21
24.157898
 31
0.0
  0
ARC
  5
C776
  8
ALPHA
 10
91.974474
 20
29.763964
 30
0.0
 40
0.091421
 50
315.0
 51
45.0
  0
ARC
  5
C777
  8
ALPHA
 10
98.357317
 20
29.763964
 30
0.0
 40
0.091421
 50
135.0
 51
225.0
  0
ARC
  5
C778
  8
ALPHA
 10
98.515896
 20
30.263964
 30
0.0
 40
0.15
 50
315.0
 51
45.0
  0
ARC
  5
C779
  8
ALPHA
 10
98.515896
 20
31.263964
 30
0.0
 40
0.15
 50
315.0
 51
45.0
  0
ARC
  5
C77A
  8
ALPHA
 10
98.515896
 20
32.263964
 30
0.0
 40
0.15
 50
315.0
 51
45.0
  0
ARC
  5
C77B
  8
ALPHA
 10
98.515896
 20
24.263964
 30
0.0
 40
0.15
 50
315.0
 51
45.0
  0
ARC
  5
C77C
  8
ALPHA
 10
98.515896
 20
25.263964
 30
0.0
 40
0.15
 50
315.0
 51
45.0
  0
ARC
  5
C77D
  8
ALPHA
 10
98.515896
 20
26.263964
 30
0.0
 40
0.15
 50
315.0
 51
45.0
  0
ARC
  5
C77E
  8
ALPHA
 10
98.515896
 20
27.263964
 30
0.0
 40
0.15
 50
315.0
 51
45.0
  0
ARC
  5
C77F
  8
ALPHA
 10
98.515896
 20
28.263964
 30
0.0
 40
0.15
 50
315.0
 51
45.0
  0
ARC
  5
C780
  8
ALPHA
 10
98.515896
 20
29.263964
 30
0.0
 40
0.15
 50
315.0
 51
45.0
  0
ARC
  5
C781
  8
ALPHA
 10
98.515896
 20
22.263964
 30
0.0
 40
0.15
 50
315.0
 51
45.0
  0
ARC
  5
C782
  8
ALPHA
 10
98.515896
 20
23.263964
 30
0.0
 40
0.15
 50
315.0
 51
45.0
  0
ARC
  5
C783
  8
ALPHA
 10
98.357317
 20
56.763964
 30
0.0
 40
0.091421
 50
135.0
 51
225.0
  0
ARC
  5
C784
  8
ALPHA
 10
91.974474
 20
56.763964
 30
0.0
 40
0.091421
 50
315.0
 51
45.0
  0
ARC
  5
C785
  8
ALPHA
 10
95.165896
 20
58.663964
 30
0.0
 40
3.2
 50
200.364135
 51
339.635865
  0
LINE
  5
C786
  8
ALPHA
 10
98.621962
 20
45.157898
 30
0.0
 11
98.292672
 21
44.828608
 31
0.0
  0
LINE
  5
C787
  8
ALPHA
 10
92.039119
 20
44.828608
 30
0.0
 11
91.709829
 21
45.157898
 31
0.0
  0
LINE
  5
C788
  8
ALPHA
 10
98.292672
 20
41.699319
 30
0.0
 11
98.621962
 21
41.37003
 31
0.0
  0
LINE
  5
C789
  8
ALPHA
 10
98.292672
 20
42.699319
 30
0.0
 11
98.621962
 21
42.37003
 31
0.0
  0
LINE
  5
C78A
  8
ALPHA
 10
98.292672
 20
43.699319
 30
0.0
 11
98.621962
 21
43.37003
 31
0.0
  0
LINE
  5
C78B
  8
ALPHA
 10
98.292672
 20
44.699319
 30
0.0
 11
98.621962
 21
44.37003
 31
0.0
  0
LINE
  5
C78C
  8
ALPHA
 10
98.621962
 20
44.157898
 30
0.0
 11
98.292672
 21
43.828608
 31
0.0
  0
LINE
  5
C78D
  8
ALPHA
 10
98.621962
 20
43.157898
 30
0.0
 11
98.292672
 21
42.828608
 31
0.0
  0
LINE
  5
C78E
  8
ALPHA
 10
98.621962
 20
42.157898
 30
0.0
 11
98.292672
 21
41.828608
 31
0.0
  0
LINE
  5
C78F
  8
ALPHA
 10
98.292672
 20
36.699319
 30
0.0
 11
98.621962
 21
36.37003
 31
0.0
  0
LINE
  5
C790
  8
ALPHA
 10
98.292672
 20
37.699319
 30
0.0
 11
98.621962
 21
37.37003
 31
0.0
  0
LINE
  5
C791
  8
ALPHA
 10
98.292672
 20
38.699319
 30
0.0
 11
98.621962
 21
38.37003
 31
0.0
  0
LINE
  5
C792
  8
ALPHA
 10
98.292672
 20
39.699319
 30
0.0
 11
98.621962
 21
39.37003
 31
0.0
  0
LINE
  5
C793
  8
ALPHA
 10
98.292672
 20
40.699319
 30
0.0
 11
98.621962
 21
40.37003
 31
0.0
  0
LINE
  5
C794
  8
ALPHA
 10
98.621962
 20
41.157898
 30
0.0
 11
98.292672
 21
40.828608
 31
0.0
  0
LINE
  5
C795
  8
ALPHA
 10
98.621962
 20
40.157898
 30
0.0
 11
98.292672
 21
39.828608
 31
0.0
  0
LINE
  5
C796
  8
ALPHA
 10
98.621962
 20
39.157898
 30
0.0
 11
98.292672
 21
38.828608
 31
0.0
  0
LINE
  5
C797
  8
ALPHA
 10
98.621962
 20
38.157898
 30
0.0
 11
98.292672
 21
37.828608
 31
0.0
  0
LINE
  5
C798
  8
ALPHA
 10
98.621962
 20
37.157898
 30
0.0
 11
98.292672
 21
36.828608
 31
0.0
  0
LINE
  5
C799
  8
ALPHA
 10
98.621962
 20
36.157898
 30
0.0
 11
98.292672
 21
35.828608
 31
0.0
  0
LINE
  5
C79A
  8
ALPHA
 10
98.292672
 20
33.699319
 30
0.0
 11
98.621962
 21
33.37003
 31
0.0
  0
LINE
  5
C79B
  8
ALPHA
 10
98.292672
 20
34.699319
 30
0.0
 11
98.621962
 21
34.37003
 31
0.0
  0
LINE
  5
C79C
  8
ALPHA
 10
98.621962
 20
35.157898
 30
0.0
 11
98.292672
 21
34.828608
 31
0.0
  0
LINE
  5
C79D
  8
ALPHA
 10
98.621962
 20
34.157898
 30
0.0
 11
98.292672
 21
33.828608
 31
0.0
  0
LINE
  5
C79E
  8
ALPHA
 10
98.292672
 20
35.699319
 30
0.0
 11
98.621962
 21
35.37003
 31
0.0
  0
ARC
  5
C79F
  8
ALPHA
 10
98.357317
 20
41.763964
 30
0.0
 40
0.091421
 50
135.0
 51
225.0
  0
ARC
  5
C7A0
  8
ALPHA
 10
98.357317
 20
42.763964
 30
0.0
 40
0.091421
 50
135.0
 51
225.0
  0
ARC
  5
C7A1
  8
ALPHA
 10
98.357317
 20
43.763964
 30
0.0
 40
0.091421
 50
135.0
 51
225.0
  0
ARC
  5
C7A2
  8
ALPHA
 10
98.357317
 20
44.763964
 30
0.0
 40
0.091421
 50
135.0
 51
225.0
  0
ARC
  5
C7A3
  8
ALPHA
 10
98.357317
 20
35.763964
 30
0.0
 40
0.091421
 50
135.0
 51
225.0
  0
ARC
  5
C7A4
  8
ALPHA
 10
98.357317
 20
36.763964
 30
0.0
 40
0.091421
 50
135.0
 51
225.0
  0
ARC
  5
C7A5
  8
ALPHA
 10
98.357317
 20
37.763964
 30
0.0
 40
0.091421
 50
135.0
 51
225.0
  0
ARC
  5
C7A6
  8
ALPHA
 10
98.357317
 20
38.763964
 30
0.0
 40
0.091421
 50
135.0
 51
225.0
  0
ARC
  5
C7A7
  8
ALPHA
 10
98.357317
 20
39.763964
 30
0.0
 40
0.091421
 50
135.0
 51
225.0
  0
ARC
  5
C7A8
  8
ALPHA
 10
98.357317
 20
40.763964
 30
0.0
 40
0.091421
 50
135.0
 51
225.0
  0
ARC
  5
C7A9
  8
ALPHA
 10
98.357317
 20
33.763964
 30
0.0
 40
0.091421
 50
135.0
 51
225.0
  0
ARC
  5
C7AA
  8
ALPHA
 10
98.357317
 20
34.763964
 30
0.0
 40
0.091421
 50
135.0
 51
225.0
  0
LINE
  5
C7AB
  8
ALPHA
 10
92.039119
 20
41.828608
 30
0.0
 11
91.709829
 21
42.157898
 31
0.0
  0
LINE
  5
C7AC
  8
ALPHA
 10
92.039119
 20
42.828608
 30
0.0
 11
91.709829
 21
43.157898
 31
0.0
  0
LINE
  5
C7AD
  8
ALPHA
 10
92.039119
 20
43.828608
 30
0.0
 11
91.709829
 21
44.157898
 31
0.0
  0
LINE
  5
C7AE
  8
ALPHA
 10
91.709829
 20
44.37003
 30
0.0
 11
92.039119
 21
44.699319
 31
0.0
  0
LINE
  5
C7AF
  8
ALPHA
 10
91.709829
 20
43.37003
 30
0.0
 11
92.039119
 21
43.699319
 31
0.0
  0
LINE
  5
C7B0
  8
ALPHA
 10
91.709829
 20
42.37003
 30
0.0
 11
92.039119
 21
42.699319
 31
0.0
  0
LINE
  5
C7B1
  8
ALPHA
 10
91.709829
 20
41.37003
 30
0.0
 11
92.039119
 21
41.699319
 31
0.0
  0
ARC
  5
C7B2
  8
ALPHA
 10
91.815896
 20
42.263964
 30
0.0
 40
0.15
 50
135.0
 51
225.0
  0
ARC
  5
C7B3
  8
ALPHA
 10
91.815896
 20
43.263964
 30
0.0
 40
0.15
 50
135.0
 51
225.0
  0
ARC
  5
C7B4
  8
ALPHA
 10
91.815896
 20
44.263964
 30
0.0
 40
0.15
 50
135.0
 51
225.0
  0
ARC
  5
C7B5
  8
ALPHA
 10
91.974474
 20
41.763964
 30
0.0
 40
0.091421
 50
315.0
 51
45.0
  0
ARC
  5
C7B6
  8
ALPHA
 10
91.974474
 20
42.763964
 30
0.0
 40
0.091421
 50
315.0
 51
45.0
  0
ARC
  5
C7B7
  8
ALPHA
 10
91.974474
 20
43.763964
 30
0.0
 40
0.091421
 50
315.0
 51
45.0
  0
ARC
  5
C7B8
  8
ALPHA
 10
91.974474
 20
44.763964
 30
0.0
 40
0.091421
 50
315.0
 51
45.0
  0
LINE
  5
C7B9
  8
ALPHA
 10
92.039119
 20
35.828608
 30
0.0
 11
91.709829
 21
36.157898
 31
0.0
  0
LINE
  5
C7BA
  8
ALPHA
 10
92.039119
 20
36.828608
 30
0.0
 11
91.709829
 21
37.157898
 31
0.0
  0
LINE
  5
C7BB
  8
ALPHA
 10
92.039119
 20
37.828608
 30
0.0
 11
91.709829
 21
38.157898
 31
0.0
  0
LINE
  5
C7BC
  8
ALPHA
 10
92.039119
 20
38.828608
 30
0.0
 11
91.709829
 21
39.157898
 31
0.0
  0
LINE
  5
C7BD
  8
ALPHA
 10
92.039119
 20
39.828608
 30
0.0
 11
91.709829
 21
40.157898
 31
0.0
  0
LINE
  5
C7BE
  8
ALPHA
 10
92.039119
 20
40.828608
 30
0.0
 11
91.709829
 21
41.157898
 31
0.0
  0
LINE
  5
C7BF
  8
ALPHA
 10
91.709829
 20
40.37003
 30
0.0
 11
92.039119
 21
40.699319
 31
0.0
  0
LINE
  5
C7C0
  8
ALPHA
 10
91.709829
 20
39.37003
 30
0.0
 11
92.039119
 21
39.699319
 31
0.0
  0
LINE
  5
C7C1
  8
ALPHA
 10
91.709829
 20
38.37003
 30
0.0
 11
92.039119
 21
38.699319
 31
0.0
  0
LINE
  5
C7C2
  8
ALPHA
 10
91.709829
 20
37.37003
 30
0.0
 11
92.039119
 21
37.699319
 31
0.0
  0
LINE
  5
C7C3
  8
ALPHA
 10
91.709829
 20
36.37003
 30
0.0
 11
92.039119
 21
36.699319
 31
0.0
  0
ARC
  5
C7C4
  8
ALPHA
 10
91.815896
 20
36.263964
 30
0.0
 40
0.15
 50
135.0
 51
225.0
  0
ARC
  5
C7C5
  8
ALPHA
 10
91.815896
 20
37.263964
 30
0.0
 40
0.15
 50
135.0
 51
225.0
  0
ARC
  5
C7C6
  8
ALPHA
 10
91.815896
 20
38.263964
 30
0.0
 40
0.15
 50
135.0
 51
225.0
  0
ARC
  5
C7C7
  8
ALPHA
 10
91.815896
 20
39.263964
 30
0.0
 40
0.15
 50
135.0
 51
225.0
  0
ARC
  5
C7C8
  8
ALPHA
 10
91.815896
 20
40.263964
 30
0.0
 40
0.15
 50
135.0
 51
225.0
  0
ARC
  5
C7C9
  8
ALPHA
 10
91.974474
 20
35.763964
 30
0.0
 40
0.091421
 50
315.0
 51
45.0
  0
ARC
  5
C7CA
  8
ALPHA
 10
91.974474
 20
36.763964
 30
0.0
 40
0.091421
 50
315.0
 51
45.0
  0
ARC
  5
C7CB
  8
ALPHA
 10
91.974474
 20
37.763964
 30
0.0
 40
0.091421
 50
315.0
 51
45.0
  0
ARC
  5
C7CC
  8
ALPHA
 10
91.974474
 20
38.763964
 30
0.0
 40
0.091421
 50
315.0
 51
45.0
  0
ARC
  5
C7CD
  8
ALPHA
 10
91.974474
 20
39.763964
 30
0.0
 40
0.091421
 50
315.0
 51
45.0
  0
ARC
  5
C7CE
  8
ALPHA
 10
91.974474
 20
40.763964
 30
0.0
 40
0.091421
 50
315.0
 51
45.0
  0
LINE
  5
C7CF
  8
ALPHA
 10
92.039119
 20
33.828608
 30
0.0
 11
91.709829
 21
34.157898
 31
0.0
  0
LINE
  5
C7D0
  8
ALPHA
 10
92.039119
 20
34.828608
 30
0.0
 11
91.709829
 21
35.157898
 31
0.0
  0
LINE
  5
C7D1
  8
ALPHA
 10
91.709829
 20
34.37003
 30
0.0
 11
92.039119
 21
34.699319
 31
0.0
  0
LINE
  5
C7D2
  8
ALPHA
 10
91.709829
 20
33.37003
 30
0.0
 11
92.039119
 21
33.699319
 31
0.0
  0
ARC
  5
C7D3
  8
ALPHA
 10
91.815896
 20
34.263964
 30
0.0
 40
0.15
 50
135.0
 51
225.0
  0
ARC
  5
C7D4
  8
ALPHA
 10
91.815896
 20
35.263964
 30
0.0
 40
0.15
 50
135.0
 51
225.0
  0
ARC
  5
C7D5
  8
ALPHA
 10
91.974474
 20
33.763964
 30
0.0
 40
0.091421
 50
315.0
 51
45.0
  0
ARC
  5
C7D6
  8
ALPHA
 10
91.974474
 20
34.763964
 30
0.0
 40
0.091421
 50
315.0
 51
45.0
  0
LINE
  5
C7D7
  8
ALPHA
 10
91.709829
 20
35.37003
 30
0.0
 11
92.039119
 21
35.699319
 31
0.0
  0
ARC
  5
C7D8
  8
ALPHA
 10
91.815896
 20
41.263964
 30
0.0
 40
0.15
 50
135.0
 51
225.0
  0
ARC
  5
C7D9
  8
ALPHA
 10
98.515896
 20
42.263964
 30
0.0
 40
0.15
 50
315.0
 51
45.0
  0
ARC
  5
C7DA
  8
ALPHA
 10
98.515896
 20
43.263964
 30
0.0
 40
0.15
 50
315.0
 51
45.0
  0
ARC
  5
C7DB
  8
ALPHA
 10
98.515896
 20
44.263964
 30
0.0
 40
0.15
 50
315.0
 51
45.0
  0
ARC
  5
C7DC
  8
ALPHA
 10
98.515896
 20
36.263964
 30
0.0
 40
0.15
 50
315.0
 51
45.0
  0
ARC
  5
C7DD
  8
ALPHA
 10
98.515896
 20
37.263964
 30
0.0
 40
0.15
 50
315.0
 51
45.0
  0
ARC
  5
C7DE
  8
ALPHA
 10
98.515896
 20
38.263964
 30
0.0
 40
0.15
 50
315.0
 51
45.0
  0
ARC
  5
C7DF
  8
ALPHA
 10
98.515896
 20
39.263964
 30
0.0
 40
0.15
 50
315.0
 51
45.0
  0
ARC
  5
C7E0
  8
ALPHA
 10
98.515896
 20
40.263964
 30
0.0
 40
0.15
 50
315.0
 51
45.0
  0
ARC
  5
C7E1
  8
ALPHA
 10
98.515896
 20
34.263964
 30
0.0
 40
0.15
 50
315.0
 51
45.0
  0
ARC
  5
C7E2
  8
ALPHA
 10
98.515896
 20
35.263964
 30
0.0
 40
0.15
 50
315.0
 51
45.0
  0
ARC
  5
C7E3
  8
ALPHA
 10
98.515896
 20
41.263964
 30
0.0
 40
0.15
 50
315.0
 51
45.0
  0
LINE
  5
C7E4
  8
ALPHA
 10
98.292672
 20
53.699319
 30
0.0
 11
98.621962
 21
53.37003
 31
0.0
  0
LINE
  5
C7E5
  8
ALPHA
 10
98.292672
 20
54.699319
 30
0.0
 11
98.621962
 21
54.37003
 31
0.0
  0
LINE
  5
C7E6
  8
ALPHA
 10
98.292672
 20
55.699319
 30
0.0
 11
98.621962
 21
55.37003
 31
0.0
  0
LINE
  5
C7E7
  8
ALPHA
 10
98.292672
 20
56.699319
 30
0.0
 11
98.621962
 21
56.37003
 31
0.0
  0
LINE
  5
C7E8
  8
ALPHA
 10
98.621962
 20
56.157898
 30
0.0
 11
98.292672
 21
55.828608
 31
0.0
  0
LINE
  5
C7E9
  8
ALPHA
 10
98.621962
 20
55.157898
 30
0.0
 11
98.292672
 21
54.828608
 31
0.0
  0
LINE
  5
C7EA
  8
ALPHA
 10
98.621962
 20
54.157898
 30
0.0
 11
98.292672
 21
53.828608
 31
0.0
  0
LINE
  5
C7EB
  8
ALPHA
 10
98.292672
 20
47.699319
 30
0.0
 11
98.621962
 21
47.37003
 31
0.0
  0
LINE
  5
C7EC
  8
ALPHA
 10
98.292672
 20
48.699319
 30
0.0
 11
98.621962
 21
48.37003
 31
0.0
  0
LINE
  5
C7ED
  8
ALPHA
 10
98.292672
 20
49.699319
 30
0.0
 11
98.621962
 21
49.37003
 31
0.0
  0
LINE
  5
C7EE
  8
ALPHA
 10
98.292672
 20
50.699319
 30
0.0
 11
98.621962
 21
50.37003
 31
0.0
  0
LINE
  5
C7EF
  8
ALPHA
 10
98.292672
 20
51.699319
 30
0.0
 11
98.621962
 21
51.37003
 31
0.0
  0
LINE
  5
C7F0
  8
ALPHA
 10
98.292672
 20
52.699319
 30
0.0
 11
98.621962
 21
52.37003
 31
0.0
  0
LINE
  5
C7F1
  8
ALPHA
 10
98.621962
 20
52.157898
 30
0.0
 11
98.292672
 21
51.828608
 31
0.0
  0
LINE
  5
C7F2
  8
ALPHA
 10
98.621962
 20
51.157898
 30
0.0
 11
98.292672
 21
50.828608
 31
0.0
  0
LINE
  5
C7F3
  8
ALPHA
 10
98.621962
 20
50.157898
 30
0.0
 11
98.292672
 21
49.828608
 31
0.0
  0
LINE
  5
C7F4
  8
ALPHA
 10
98.621962
 20
49.157898
 30
0.0
 11
98.292672
 21
48.828608
 31
0.0
  0
LINE
  5
C7F5
  8
ALPHA
 10
98.621962
 20
48.157898
 30
0.0
 11
98.292672
 21
47.828608
 31
0.0
  0
LINE
  5
C7F6
  8
ALPHA
 10
98.292672
 20
45.699319
 30
0.0
 11
98.621962
 21
45.37003
 31
0.0
  0
LINE
  5
C7F7
  8
ALPHA
 10
98.292672
 20
46.699319
 30
0.0
 11
98.621962
 21
46.37003
 31
0.0
  0
LINE
  5
C7F8
  8
ALPHA
 10
98.621962
 20
46.157898
 30
0.0
 11
98.292672
 21
45.828608
 31
0.0
  0
LINE
  5
C7F9
  8
ALPHA
 10
98.621962
 20
47.157898
 30
0.0
 11
98.292672
 21
46.828608
 31
0.0
  0
LINE
  5
C7FA
  8
ALPHA
 10
98.621962
 20
53.157898
 30
0.0
 11
98.292672
 21
52.828608
 31
0.0
  0
ARC
  5
C7FB
  8
ALPHA
 10
98.357317
 20
53.763964
 30
0.0
 40
0.091421
 50
135.0
 51
225.0
  0
ARC
  5
C7FC
  8
ALPHA
 10
98.357317
 20
54.763964
 30
0.0
 40
0.091421
 50
135.0
 51
225.0
  0
ARC
  5
C7FD
  8
ALPHA
 10
98.357317
 20
55.763964
 30
0.0
 40
0.091421
 50
135.0
 51
225.0
  0
ARC
  5
C7FE
  8
ALPHA
 10
98.357317
 20
47.763964
 30
0.0
 40
0.091421
 50
135.0
 51
225.0
  0
ARC
  5
C7FF
  8
ALPHA
 10
98.357317
 20
48.763964
 30
0.0
 40
0.091421
 50
135.0
 51
225.0
  0
ARC
  5
C800
  8
ALPHA
 10
98.357317
 20
49.763964
 30
0.0
 40
0.091421
 50
135.0
 51
225.0
  0
ARC
  5
C801
  8
ALPHA
 10
98.357317
 20
50.763964
 30
0.0
 40
0.091421
 50
135.0
 51
225.0
  0
ARC
  5
C802
  8
ALPHA
 10
98.357317
 20
51.763964
 30
0.0
 40
0.091421
 50
135.0
 51
225.0
  0
ARC
  5
C803
  8
ALPHA
 10
98.357317
 20
52.763964
 30
0.0
 40
0.091421
 50
135.0
 51
225.0
  0
ARC
  5
C804
  8
ALPHA
 10
98.357317
 20
45.763964
 30
0.0
 40
0.091421
 50
135.0
 51
225.0
  0
ARC
  5
C805
  8
ALPHA
 10
98.357317
 20
46.763964
 30
0.0
 40
0.091421
 50
135.0
 51
225.0
  0
LINE
  5
C806
  8
ALPHA
 10
92.039119
 20
53.828608
 30
0.0
 11
91.709829
 21
54.157898
 31
0.0
  0
LINE
  5
C807
  8
ALPHA
 10
92.039119
 20
54.828608
 30
0.0
 11
91.709829
 21
55.157898
 31
0.0
  0
LINE
  5
C808
  8
ALPHA
 10
92.039119
 20
55.828608
 30
0.0
 11
91.709829
 21
56.157898
 31
0.0
  0
LINE
  5
C809
  8
ALPHA
 10
91.709829
 20
56.37003
 30
0.0
 11
92.039119
 21
56.699319
 31
0.0
  0
LINE
  5
C80A
  8
ALPHA
 10
91.709829
 20
55.37003
 30
0.0
 11
92.039119
 21
55.699319
 31
0.0
  0
LINE
  5
C80B
  8
ALPHA
 10
91.709829
 20
54.37003
 30
0.0
 11
92.039119
 21
54.699319
 31
0.0
  0
LINE
  5
C80C
  8
ALPHA
 10
91.709829
 20
53.37003
 30
0.0
 11
92.039119
 21
53.699319
 31
0.0
  0
ARC
  5
C80D
  8
ALPHA
 10
91.815896
 20
53.263964
 30
0.0
 40
0.15
 50
135.0
 51
225.0
  0
ARC
  5
C80E
  8
ALPHA
 10
91.815896
 20
54.263964
 30
0.0
 40
0.15
 50
135.0
 51
225.0
  0
ARC
  5
C80F
  8
ALPHA
 10
91.815896
 20
55.263964
 30
0.0
 40
0.15
 50
135.0
 51
225.0
  0
ARC
  5
C810
  8
ALPHA
 10
91.815896
 20
56.263964
 30
0.0
 40
0.15
 50
135.0
 51
225.0
  0
ARC
  5
C811
  8
ALPHA
 10
91.974474
 20
53.763964
 30
0.0
 40
0.091421
 50
315.0
 51
45.0
  0
ARC
  5
C812
  8
ALPHA
 10
91.974474
 20
54.763964
 30
0.0
 40
0.091421
 50
315.0
 51
45.0
  0
ARC
  5
C813
  8
ALPHA
 10
91.974474
 20
55.763964
 30
0.0
 40
0.091421
 50
315.0
 51
45.0
  0
LINE
  5
C814
  8
ALPHA
 10
92.039119
 20
47.828608
 30
0.0
 11
91.709829
 21
48.157898
 31
0.0
  0
LINE
  5
C815
  8
ALPHA
 10
92.039119
 20
48.828608
 30
0.0
 11
91.709829
 21
49.157898
 31
0.0
  0
LINE
  5
C816
  8
ALPHA
 10
92.039119
 20
49.828608
 30
0.0
 11
91.709829
 21
50.157898
 31
0.0
  0
LINE
  5
C817
  8
ALPHA
 10
92.039119
 20
50.828608
 30
0.0
 11
91.709829
 21
51.157898
 31
0.0
  0
LINE
  5
C818
  8
ALPHA
 10
92.039119
 20
51.828608
 30
0.0
 11
91.709829
 21
52.157898
 31
0.0
  0
LINE
  5
C819
  8
ALPHA
 10
91.709829
 20
52.37003
 30
0.0
 11
92.039119
 21
52.699319
 31
0.0
  0
LINE
  5
C81A
  8
ALPHA
 10
91.709829
 20
51.37003
 30
0.0
 11
92.039119
 21
51.699319
 31
0.0
  0
LINE
  5
C81B
  8
ALPHA
 10
91.709829
 20
50.37003
 30
0.0
 11
92.039119
 21
50.699319
 31
0.0
  0
LINE
  5
C81C
  8
ALPHA
 10
91.709829
 20
49.37003
 30
0.0
 11
92.039119
 21
49.699319
 31
0.0
  0
LINE
  5
C81D
  8
ALPHA
 10
91.709829
 20
48.37003
 30
0.0
 11
92.039119
 21
48.699319
 31
0.0
  0
LINE
  5
C81E
  8
ALPHA
 10
91.709829
 20
47.37003
 30
0.0
 11
92.039119
 21
47.699319
 31
0.0
  0
ARC
  5
C81F
  8
ALPHA
 10
91.815896
 20
47.263964
 30
0.0
 40
0.15
 50
135.0
 51
225.0
  0
ARC
  5
C820
  8
ALPHA
 10
91.815896
 20
48.263964
 30
0.0
 40
0.15
 50
135.0
 51
225.0
  0
ARC
  5
C821
  8
ALPHA
 10
91.815896
 20
49.263964
 30
0.0
 40
0.15
 50
135.0
 51
225.0
  0
ARC
  5
C822
  8
ALPHA
 10
91.815896
 20
50.263964
 30
0.0
 40
0.15
 50
135.0
 51
225.0
  0
ARC
  5
C823
  8
ALPHA
 10
91.815896
 20
51.263964
 30
0.0
 40
0.15
 50
135.0
 51
225.0
  0
ARC
  5
C824
  8
ALPHA
 10
91.815896
 20
52.263964
 30
0.0
 40
0.15
 50
135.0
 51
225.0
  0
ARC
  5
C825
  8
ALPHA
 10
91.974474
 20
47.763964
 30
0.0
 40
0.091421
 50
315.0
 51
45.0
  0
ARC
  5
C826
  8
ALPHA
 10
91.974474
 20
48.763964
 30
0.0
 40
0.091421
 50
315.0
 51
45.0
  0
ARC
  5
C827
  8
ALPHA
 10
91.974474
 20
49.763964
 30
0.0
 40
0.091421
 50
315.0
 51
45.0
  0
ARC
  5
C828
  8
ALPHA
 10
91.974474
 20
50.763964
 30
0.0
 40
0.091421
 50
315.0
 51
45.0
  0
ARC
  5
C829
  8
ALPHA
 10
91.974474
 20
51.763964
 30
0.0
 40
0.091421
 50
315.0
 51
45.0
  0
ARC
  5
C82A
  8
ALPHA
 10
91.974474
 20
52.763964
 30
0.0
 40
0.091421
 50
315.0
 51
45.0
  0
LINE
  5
C82B
  8
ALPHA
 10
92.039119
 20
45.828608
 30
0.0
 11
91.709829
 21
46.157898
 31
0.0
  0
LINE
  5
C82C
  8
ALPHA
 10
91.709829
 20
46.37003
 30
0.0
 11
92.039119
 21
46.699319
 31
0.0
  0
LINE
  5
C82D
  8
ALPHA
 10
91.709829
 20
45.37003
 30
0.0
 11
92.039119
 21
45.699319
 31
0.0
  0
ARC
  5
C82E
  8
ALPHA
 10
91.815896
 20
45.263964
 30
0.0
 40
0.15
 50
135.0
 51
225.0
  0
ARC
  5
C82F
  8
ALPHA
 10
91.815896
 20
46.263964
 30
0.0
 40
0.15
 50
135.0
 51
225.0
  0
ARC
  5
C830
  8
ALPHA
 10
91.974474
 20
45.763964
 30
0.0
 40
0.091421
 50
315.0
 51
45.0
  0
ARC
  5
C831
  8
ALPHA
 10
91.974474
 20
46.763964
 30
0.0
 40
0.091421
 50
315.0
 51
45.0
  0
LINE
  5
C832
  8
ALPHA
 10
92.039119
 20
46.828608
 30
0.0
 11
91.709829
 21
47.157898
 31
0.0
  0
LINE
  5
C833
  8
ALPHA
 10
92.039119
 20
52.828608
 30
0.0
 11
91.709829
 21
53.157898
 31
0.0
  0
ARC
  5
C834
  8
ALPHA
 10
98.515896
 20
53.263964
 30
0.0
 40
0.15
 50
315.0
 51
45.0
  0
ARC
  5
C835
  8
ALPHA
 10
98.515896
 20
54.263964
 30
0.0
 40
0.15
 50
315.0
 51
45.0
  0
ARC
  5
C836
  8
ALPHA
 10
98.515896
 20
55.263964
 30
0.0
 40
0.15
 50
315.0
 51
45.0
  0
ARC
  5
C837
  8
ALPHA
 10
98.515896
 20
56.263964
 30
0.0
 40
0.15
 50
315.0
 51
45.0
  0
ARC
  5
C838
  8
ALPHA
 10
98.515896
 20
47.263964
 30
0.0
 40
0.15
 50
315.0
 51
45.0
  0
ARC
  5
C839
  8
ALPHA
 10
98.515896
 20
48.263964
 30
0.0
 40
0.15
 50
315.0
 51
45.0
  0
ARC
  5
C83A
  8
ALPHA
 10
98.515896
 20
49.263964
 30
0.0
 40
0.15
 50
315.0
 51
45.0
  0
ARC
  5
C83B
  8
ALPHA
 10
98.515896
 20
50.263964
 30
0.0
 40
0.15
 50
315.0
 51
45.0
  0
ARC
  5
C83C
  8
ALPHA
 10
98.515896
 20
51.263964
 30
0.0
 40
0.15
 50
315.0
 51
45.0
  0
ARC
  5
C83D
  8
ALPHA
 10
98.515896
 20
52.263964
 30
0.0
 40
0.15
 50
315.0
 51
45.0
  0
ARC
  5
C83E
  8
ALPHA
 10
98.515896
 20
45.263964
 30
0.0
 40
0.15
 50
315.0
 51
45.0
  0
ARC
  5
C83F
  8
ALPHA
 10
98.515896
 20
46.263964
 30
0.0
 40
0.15
 50
315.0
 51
45.0
  0
LINE
  5
C840
  8
ALPHA
 10
98.292672
 20
68.699319
 30
0.0
 11
98.621962
 21
68.37003
 31
0.0
  0
LINE
  5
C841
  8
ALPHA
 10
91.709829
 20
68.37003
 30
0.0
 11
92.039119
 21
68.699319
 31
0.0
  0
LINE
  5
C842
  8
ALPHA
 10
98.621962
 20
68.157898
 30
0.0
 11
98.292672
 21
67.828608
 31
0.0
  0
LINE
  5
C843
  8
ALPHA
 10
98.621962
 20
67.157898
 30
0.0
 11
98.292672
 21
66.828608
 31
0.0
  0
LINE
  5
C844
  8
ALPHA
 10
98.621962
 20
66.157898
 30
0.0
 11
98.292672
 21
65.828608
 31
0.0
  0
LINE
  5
C845
  8
ALPHA
 10
98.621962
 20
65.157898
 30
0.0
 11
98.292672
 21
64.828608
 31
0.0
  0
LINE
  5
C846
  8
ALPHA
 10
98.292672
 20
65.699319
 30
0.0
 11
98.621962
 21
65.37003
 31
0.0
  0
LINE
  5
C847
  8
ALPHA
 10
98.292672
 20
66.699319
 30
0.0
 11
98.621962
 21
66.37003
 31
0.0
  0
LINE
  5
C848
  8
ALPHA
 10
98.292672
 20
67.699319
 30
0.0
 11
98.621962
 21
67.37003
 31
0.0
  0
LINE
  5
C849
  8
ALPHA
 10
98.621962
 20
64.157898
 30
0.0
 11
98.292672
 21
63.828608
 31
0.0
  0
LINE
  5
C84A
  8
ALPHA
 10
98.621962
 20
63.157898
 30
0.0
 11
98.292672
 21
62.828608
 31
0.0
  0
LINE
  5
C84B
  8
ALPHA
 10
98.621962
 20
62.157898
 30
0.0
 11
98.292672
 21
61.828608
 31
0.0
  0
LINE
  5
C84C
  8
ALPHA
 10
98.209829
 20
60.87003
 30
0.0
 11
98.496441
 21
61.156641
 31
0.0
  0
LINE
  5
C84D
  8
ALPHA
 10
98.621962
 20
61.157898
 30
0.0
 11
98.292672
 21
60.828608
 31
0.0
  0
LINE
  5
C84E
  8
ALPHA
 10
98.209829
 20
59.87003
 30
0.0
 11
98.496441
 21
60.156641
 31
0.0
  0
LINE
  5
C84F
  8
ALPHA
 10
98.621962
 20
60.157898
 30
0.0
 11
98.292672
 21
59.828608
 31
0.0
  0
LINE
  5
C850
  8
ALPHA
 10
98.496441
 20
59.371286
 30
0.0
 11
98.209829
 21
59.657898
 31
0.0
  0
LINE
  5
C851
  8
ALPHA
 10
98.292672
 20
59.699319
 30
0.0
 11
98.621962
 21
59.37003
 31
0.0
  0
LINE
  5
C852
  8
ALPHA
 10
98.496441
 20
60.371286
 30
0.0
 11
98.209829
 21
60.657898
 31
0.0
  0
LINE
  5
C853
  8
ALPHA
 10
98.292672
 20
60.699319
 30
0.0
 11
98.621962
 21
60.37003
 31
0.0
  0
LINE
  5
C854
  8
ALPHA
 10
98.496441
 20
61.371286
 30
0.0
 11
98.209829
 21
61.657898
 31
0.0
  0
LINE
  5
C855
  8
ALPHA
 10
98.292672
 20
61.699319
 30
0.0
 11
98.621962
 21
61.37003
 31
0.0
  0
LINE
  5
C856
  8
ALPHA
 10
98.292672
 20
62.699319
 30
0.0
 11
98.621962
 21
62.37003
 31
0.0
  0
LINE
  5
C857
  8
ALPHA
 10
98.292672
 20
63.699319
 30
0.0
 11
98.621962
 21
63.37003
 31
0.0
  0
LINE
  5
C858
  8
ALPHA
 10
98.47144
 20
63.040011
 30
0.0
 11
98.148645
 21
63.556592
 31
0.0
  0
LINE
  5
C859
  8
ALPHA
 10
98.209829
 20
58.87003
 30
0.0
 11
98.496441
 21
59.156641
 31
0.0
  0
LINE
  5
C85A
  8
ALPHA
 10
98.621962
 20
59.157898
 30
0.0
 11
98.292672
 21
58.828608
 31
0.0
  0
LINE
  5
C85B
  8
ALPHA
 10
98.320921
 20
59.263964
 30
0.0
 11
98.540896
 21
59.263964
 31
0.0
  0
LINE
  5
C85C
  8
ALPHA
 10
98.320921
 20
61.263964
 30
0.0
 11
98.540896
 21
61.263964
 31
0.0
  0
LINE
  5
C85D
  8
ALPHA
 10
98.320921
 20
60.263964
 30
0.0
 11
98.540896
 21
60.263964
 31
0.0
  0
LINE
  5
C85E
  8
ALPHA
 10
98.292672
 20
57.699319
 30
0.0
 11
98.621962
 21
57.37003
 31
0.0
  0
LINE
  5
C85F
  8
ALPHA
 10
98.496441
 20
58.371286
 30
0.0
 11
98.209829
 21
58.657898
 31
0.0
  0
LINE
  5
C860
  8
ALPHA
 10
98.292672
 20
58.699319
 30
0.0
 11
98.621962
 21
58.37003
 31
0.0
  0
LINE
  5
C861
  8
ALPHA
 10
98.496441
 20
58.156641
 30
0.0
 11
98.209829
 21
57.87003
 31
0.0
  0
LINE
  5
C862
  8
ALPHA
 10
98.621962
 20
58.157898
 30
0.0
 11
98.292672
 21
57.828608
 31
0.0
  0
LINE
  5
C863
  8
ALPHA
 10
98.621962
 20
57.157898
 30
0.0
 11
98.292672
 21
56.828608
 31
0.0
  0
ARC
  5
C864
  8
ALPHA
 10
95.165896
 20
66.763964
 30
0.0
 40
10.0
 50
286.448613
 51
290.143784
  0
LINE
  5
C865
  8
ALPHA
 10
98.540896
 20
58.263964
 30
0.0
 11
98.320921
 21
58.263964
 31
0.0
  0
LINE
  5
C866
  8
ALPHA
 10
98.292672
 20
64.699319
 30
0.0
 11
98.621962
 21
64.37003
 31
0.0
  0
ARC
  5
C867
  8
ALPHA
 10
98.357317
 20
67.763964
 30
0.0
 40
0.091421
 50
135.0
 51
225.0
  0
ARC
  5
C868
  8
ALPHA
 10
98.357317
 20
66.763964
 30
0.0
 40
0.091421
 50
135.0
 51
225.0
  0
ARC
  5
C869
  8
ALPHA
 10
98.357317
 20
65.763964
 30
0.0
 40
0.091421
 50
135.0
 51
225.0
  0
ARC
  5
C86A
  8
ALPHA
 10
98.357317
 20
64.763964
 30
0.0
 40
0.091421
 50
135.0
 51
225.0
  0
LINE
  5
C86B
  8
ALPHA
 10
97.457183
 20
61.763964
 30
0.0
 11
98.165896
 21
61.763964
 31
0.0
  0
LINE
  5
C86C
  8
ALPHA
 10
98.068408
 20
59.011451
 30
0.0
 11
98.209829
 21
58.87003
 31
0.0
  0
LINE
  5
C86D
  8
ALPHA
 10
98.068408
 20
61.516476
 30
0.0
 11
98.209829
 21
61.657898
 31
0.0
  0
LINE
  5
C86E
  8
ALPHA
 10
98.068408
 20
61.011451
 30
0.0
 11
98.320921
 21
61.263964
 31
0.0
  0
LINE
  5
C86F
  8
ALPHA
 10
98.068408
 20
60.516476
 30
0.0
 11
98.209829
 21
60.657898
 31
0.0
  0
LINE
  5
C870
  8
ALPHA
 10
98.068408
 20
60.011451
 30
0.0
 11
98.320921
 21
60.263964
 31
0.0
  0
LINE
  5
C871
  8
ALPHA
 10
98.068408
 20
59.516476
 30
0.0
 11
98.209829
 21
59.657898
 31
0.0
  0
LINE
  5
C872
  8
ALPHA
 10
98.068408
 20
59.011451
 30
0.0
 11
98.320921
 21
59.263964
 31
0.0
  0
LINE
  5
C873
  8
ALPHA
 10
98.320921
 20
59.263964
 30
0.0
 11
98.068408
 21
59.516476
 31
0.0
  0
LINE
  5
C874
  8
ALPHA
 10
98.068408
 20
60.011451
 30
0.0
 11
98.209829
 21
59.87003
 31
0.0
  0
LINE
  5
C875
  8
ALPHA
 10
98.320921
 20
60.263964
 30
0.0
 11
98.068408
 21
60.516476
 31
0.0
  0
LINE
  5
C876
  8
ALPHA
 10
98.068408
 20
61.011451
 30
0.0
 11
98.209829
 21
60.87003
 31
0.0
  0
LINE
  5
C877
  8
ALPHA
 10
98.320921
 20
61.263964
 30
0.0
 11
98.068408
 21
61.516476
 31
0.0
  0
LINE
  5
C878
  8
ALPHA
 10
97.491987
 20
63.05272
 30
0.0
 11
97.90742
 21
62.607223
 31
0.0
  0
LINE
  5
C879
  8
ALPHA
 10
97.394976
 20
62.311364
 30
0.0
 11
97.216881
 21
62.893888
 31
0.0
  0
ARC
  5
C87A
  8
ALPHA
 10
97.203715
 20
62.252889
 30
0.0
 40
0.2
 50
294.303478
 51
17.0
  0
ARC
  5
C87B
  8
ALPHA
 10
97.312511
 20
62.923125
 30
0.0
 40
0.1
 50
119.200498
 51
197.0
  0
ARC
  5
C87C
  8
ALPHA
 10
95.165896
 20
66.763964
 30
0.0
 40
4.3
 50
299.200498
 51
300.799502
  0
ARC
  5
C87D
  8
ALPHA
 10
97.418851
 20
62.98452
 30
0.0
 40
0.1
 50
43.0
 51
120.799502
  0
ARC
  5
C87E
  8
ALPHA
 10
98.05369
 20
62.743623
 30
0.0
 40
0.2
 50
223.0
 51
305.689918
  0
ARC
  5
C87F
  8
ALPHA
 10
95.165896
 20
66.763964
 30
0.0
 40
5.15
 50
305.689551
 51
307.601008
  0
ARC
  5
C880
  8
ALPHA
 10
98.233449
 20
63.609584
 30
0.0
 40
0.1
 50
134.200498
 51
212.0
  0
ARC
  5
C881
  8
ALPHA
 10
95.165896
 20
66.763964
 30
0.0
 40
4.3
 50
314.200498
 51
315.799502
  0
ARC
  5
C882
  8
ALPHA
 10
98.315896
 20
61.763964
 30
0.0
 40
0.15
 50
180.0
 51
225.0
  0
ARC
  5
C883
  8
ALPHA
 10
98.315896
 20
60.763964
 30
0.0
 40
0.15
 50
135.0
 51
225.0
  0
ARC
  5
C884
  8
ALPHA
 10
98.315896
 20
59.763964
 30
0.0
 40
0.15
 50
135.0
 51
225.0
  0
ARC
  5
C885
  8
ALPHA
 10
98.315896
 20
59.763964
 30
0.0
 40
0.35
 50
135.0
 51
225.0
  0
ARC
  5
C886
  8
ALPHA
 10
98.315896
 20
61.763964
 30
0.0
 40
0.35
 50
180.0
 51
225.0
  0
ARC
  5
C887
  8
ALPHA
 10
98.315896
 20
60.763964
 30
0.0
 40
0.35
 50
135.0
 51
225.0
  0
ARC
  5
C888
  8
ALPHA
 10
98.357317
 20
59.763964
 30
0.0
 40
0.091421
 50
135.0
 51
225.0
  0
ARC
  5
C889
  8
ALPHA
 10
98.357317
 20
60.763964
 30
0.0
 40
0.091421
 50
135.0
 51
225.0
  0
ARC
  5
C88A
  8
ALPHA
 10
98.357317
 20
61.763964
 30
0.0
 40
0.091421
 50
135.0
 51
225.0
  0
ARC
  5
C88B
  8
ALPHA
 10
98.357317
 20
62.763964
 30
0.0
 40
0.091421
 50
135.0
 51
225.0
  0
ARC
  5
C88C
  8
ALPHA
 10
98.357317
 20
63.763964
 30
0.0
 40
0.091421
 50
135.0
 51
225.0
  0
LINE
  5
C88D
  8
ALPHA
 10
98.165896
 20
57.763964
 30
0.0
 11
97.965896
 21
57.763964
 31
0.0
  0
LINE
  5
C88E
  8
ALPHA
 10
98.209829
 20
57.87003
 30
0.0
 11
98.068408
 21
58.011451
 31
0.0
  0
LINE
  5
C88F
  8
ALPHA
 10
98.320921
 20
58.263964
 30
0.0
 11
98.068408
 21
58.516476
 31
0.0
  0
LINE
  5
C890
  8
ALPHA
 10
97.965896
 20
57.763964
 30
0.0
 11
97.965896
 21
57.11477
 31
0.0
  0
LINE
  5
C891
  8
ALPHA
 10
98.165896
 20
57.763964
 30
0.0
 11
98.165896
 21
57.550411
 31
0.0
  0
LINE
  5
C892
  8
ALPHA
 10
98.068408
 20
58.516476
 30
0.0
 11
98.209829
 21
58.657898
 31
0.0
  0
LINE
  5
C893
  8
ALPHA
 10
98.320921
 20
58.263964
 30
0.0
 11
98.068408
 21
58.011451
 31
0.0
  0
ARC
  5
C894
  8
ALPHA
 10
98.315896
 20
57.763964
 30
0.0
 40
0.15
 50
135.0
 51
180.0
  0
ARC
  5
C895
  8
ALPHA
 10
98.315896
 20
57.763964
 30
0.0
 40
0.349999
 50
135.0
 51
180.0
  0
ARC
  5
C896
  8
ALPHA
 10
98.357317
 20
57.763964
 30
0.0
 40
0.091421
 50
135.0
 51
225.0
  0
ARC
  5
C897
  8
ALPHA
 10
98.315896
 20
58.763964
 30
0.0
 40
0.15
 50
135.0
 51
225.0
  0
ARC
  5
C898
  8
ALPHA
 10
98.315896
 20
58.763964
 30
0.0
 40
0.35
 50
135.0
 51
225.0
  0
ARC
  5
C899
  8
ALPHA
 10
98.357317
 20
58.763964
 30
0.0
 40
0.091421
 50
135.0
 51
225.0
  0
LINE
  5
C89A
  8
ALPHA
 10
91.709829
 20
67.37003
 30
0.0
 11
92.039119
 21
67.699319
 31
0.0
  0
LINE
  5
C89B
  8
ALPHA
 10
91.709829
 20
66.37003
 30
0.0
 11
92.039119
 21
66.699319
 31
0.0
  0
LINE
  5
C89C
  8
ALPHA
 10
91.709829
 20
65.37003
 30
0.0
 11
92.039119
 21
65.699319
 31
0.0
  0
LINE
  5
C89D
  8
ALPHA
 10
92.039119
 20
64.828608
 30
0.0
 11
91.709829
 21
65.157898
 31
0.0
  0
LINE
  5
C89E
  8
ALPHA
 10
92.039119
 20
65.828608
 30
0.0
 11
91.709829
 21
66.157898
 31
0.0
  0
LINE
  5
C89F
  8
ALPHA
 10
92.039119
 20
66.828608
 30
0.0
 11
91.709829
 21
67.157898
 31
0.0
  0
LINE
  5
C8A0
  8
ALPHA
 10
92.039119
 20
67.828608
 30
0.0
 11
91.709829
 21
68.157898
 31
0.0
  0
ARC
  5
C8A1
  8
ALPHA
 10
91.815896
 20
65.263964
 30
0.0
 40
0.15
 50
135.0
 51
225.0
  0
ARC
  5
C8A2
  8
ALPHA
 10
91.815896
 20
66.263964
 30
0.0
 40
0.15
 50
135.0
 51
225.0
  0
ARC
  5
C8A3
  8
ALPHA
 10
91.815896
 20
67.263964
 30
0.0
 40
0.15
 50
135.0
 51
225.0
  0
ARC
  5
C8A4
  8
ALPHA
 10
91.815896
 20
68.263964
 30
0.0
 40
0.15
 50
135.0
 51
225.0
  0
ARC
  5
C8A5
  8
ALPHA
 10
91.974474
 20
64.763964
 30
0.0
 40
0.091421
 50
315.0
 51
45.0
  0
ARC
  5
C8A6
  8
ALPHA
 10
91.974474
 20
65.763964
 30
0.0
 40
0.091421
 50
315.0
 51
45.0
  0
ARC
  5
C8A7
  8
ALPHA
 10
91.974474
 20
66.763964
 30
0.0
 40
0.091421
 50
315.0
 51
45.0
  0
ARC
  5
C8A8
  8
ALPHA
 10
91.974474
 20
67.763964
 30
0.0
 40
0.091421
 50
315.0
 51
45.0
  0
LINE
  5
C8A9
  8
ALPHA
 10
95.324728
 20
62.386887
 30
0.0
 11
95.461755
 21
61.793359
 31
0.0
  0
LINE
  5
C8AA
  8
ALPHA
 10
96.166605
 20
61.886154
 30
0.0
 11
96.145346
 21
62.494923
 31
0.0
  0
LINE
  5
C8AB
  8
ALPHA
 10
96.452187
 20
62.577141
 30
0.0
 11
96.738161
 21
62.039302
 31
0.0
  0
ARC
  5
C8AC
  8
ALPHA
 10
95.1045
 20
62.364392
 30
0.0
 40
0.1
 50
89.200498
 51
167.0
  0
ARC
  5
C8AD
  8
ALPHA
 10
95.165896
 20
66.763964
 30
0.0
 40
4.3
 50
269.200498
 51
270.799502
  0
ARC
  5
C8AE
  8
ALPHA
 10
95.227291
 20
62.364392
 30
0.0
 40
0.1
 50
13.0
 51
90.799502
  0
ARC
  5
C8AF
  8
ALPHA
 10
95.656629
 20
61.838349
 30
0.0
 40
0.2
 50
193.0
 51
275.683193
  0
ARC
  5
C8B0
  8
ALPHA
 10
95.165896
 20
66.763964
 30
0.0
 40
5.15
 50
275.68929
 51
279.310531
  0
ARC
  5
C8B1
  8
ALPHA
 10
95.966727
 20
61.879174
 30
0.0
 40
0.2
 50
279.312192
 51
2.0
  0
ARC
  5
C8B2
  8
ALPHA
 10
96.245285
 20
62.498413
 30
0.0
 40
0.1
 50
104.200498
 51
182.0
  0
ARC
  5
C8B3
  8
ALPHA
 10
95.165896
 20
66.763964
 30
0.0
 40
4.3
 50
284.200498
 51
285.799502
  0
ARC
  5
C8B4
  8
ALPHA
 10
96.363892
 20
62.530194
 30
0.0
 40
0.1
 50
28.0
 51
105.799502
  0
ARC
  5
C8B5
  8
ALPHA
 10
96.91475
 20
62.133196
 30
0.0
 40
0.2
 50
208.0
 51
290.696379
  0
LINE
  5
C8B6
  8
ALPHA
 10
94.186445
 20
62.494923
 30
0.0
 11
94.165186
 21
61.886154
 31
0.0
  0
LINE
  5
C8B7
  8
ALPHA
 10
93.11491
 20
62.893888
 30
0.0
 11
92.936815
 21
62.311364
 31
0.0
  0
LINE
  5
C8B8
  8
ALPHA
 10
93.59363
 20
62.039302
 30
0.0
 11
93.879604
 21
62.577141
 31
0.0
  0
ARC
  5
C8B9
  8
ALPHA
 10
95.165896
 20
66.763964
 30
0.0
 40
4.3
 50
239.200498
 51
240.799502
  0
ARC
  5
C8BA
  8
ALPHA
 10
93.01928
 20
62.923125
 30
0.0
 40
0.1
 50
343.0
 51
60.799502
  0
ARC
  5
C8BB
  8
ALPHA
 10
95.165896
 20
66.763964
 30
0.0
 40
5.15
 50
245.689807
 51
249.310198
  0
ARC
  5
C8BC
  8
ALPHA
 10
93.417041
 20
62.133196
 30
0.0
 40
0.2
 50
249.303621
 51
332.0
  0
ARC
  5
C8BD
  8
ALPHA
 10
93.967899
 20
62.530194
 30
0.0
 40
0.1
 50
74.200498
 51
152.0
  0
ARC
  5
C8BE
  8
ALPHA
 10
95.165896
 20
66.763964
 30
0.0
 40
4.3
 50
254.200498
 51
255.799502
  0
ARC
  5
C8BF
  8
ALPHA
 10
94.086506
 20
62.498413
 30
0.0
 40
0.1
 50
358.0
 51
75.799502
  0
ARC
  5
C8C0
  8
ALPHA
 10
94.365064
 20
61.879174
 30
0.0
 40
0.2
 50
178.0
 51
260.687808
  0
ARC
  5
C8C1
  8
ALPHA
 10
95.165896
 20
66.763964
 30
0.0
 40
5.15
 50
260.689469
 51
264.31071
  0
ARC
  5
C8C2
  8
ALPHA
 10
94.675162
 20
61.838349
 30
0.0
 40
0.2
 50
264.316807
 51
347.0
  0
LINE
  5
C8C3
  8
ALPHA
 10
94.870036
 20
61.793359
 30
0.0
 11
95.007063
 21
62.386887
 31
0.0
  0
LINE
  5
C8C4
  8
ALPHA
 10
95.515896
 20
60.263964
 30
0.0
 11
94.815896
 21
60.263964
 31
0.0
  0
LINE
  5
C8C5
  8
ALPHA
 10
95.407753
 20
57.650678
 30
0.0
 11
95.515896
 21
58.063964
 31
0.0
  0
LINE
  5
C8C6
  8
ALPHA
 10
94.815896
 20
58.063964
 30
0.0
 11
94.924038
 21
57.650678
 31
0.0
  0
ARC
  5
C8C7
  8
ALPHA
 10
95.165896
 20
57.713964
 30
0.0
 40
0.25
 50
194.663584
 51
345.336416
  0
LINE
  5
C8C8
  8
ALPHA
 10
94.815896
 20
60.263964
 30
0.0
 11
94.815896
 21
58.063964
 31
0.0
  0
LINE
  5
C8C9
  8
ALPHA
 10
95.515896
 20
58.063964
 30
0.0
 11
95.515896
 21
60.263964
 31
0.0
  0
LINE
  5
C8CA
  8
ALPHA
 10
92.183146
 20
63.556592
 30
0.0
 11
91.860351
 21
63.040011
 31
0.0
  0
LINE
  5
C8CB
  8
ALPHA
 10
91.709829
 20
63.37003
 30
0.0
 11
92.039119
 21
63.699319
 31
0.0
  0
LINE
  5
C8CC
  8
ALPHA
 10
91.709829
 20
62.37003
 30
0.0
 11
92.039119
 21
62.699319
 31
0.0
  0
LINE
  5
C8CD
  8
ALPHA
 10
92.039119
 20
58.828608
 30
0.0
 11
91.709829
 21
59.157898
 31
0.0
  0
LINE
  5
C8CE
  8
ALPHA
 10
91.83535
 20
59.156641
 30
0.0
 11
92.121962
 21
58.87003
 31
0.0
  0
LINE
  5
C8CF
  8
ALPHA
 10
92.01087
 20
59.263964
 30
0.0
 11
92.263383
 21
59.011451
 31
0.0
  0
LINE
  5
C8D0
  8
ALPHA
 10
92.263383
 20
59.516476
 30
0.0
 11
92.121962
 21
59.657898
 31
0.0
  0
LINE
  5
C8D1
  8
ALPHA
 10
92.039119
 20
59.828608
 30
0.0
 11
91.709829
 21
60.157898
 31
0.0
  0
LINE
  5
C8D2
  8
ALPHA
 10
91.83535
 20
60.156641
 30
0.0
 11
92.121962
 21
59.87003
 31
0.0
  0
LINE
  5
C8D3
  8
ALPHA
 10
92.01087
 20
60.263964
 30
0.0
 11
92.263383
 21
60.011451
 31
0.0
  0
LINE
  5
C8D4
  8
ALPHA
 10
92.424371
 20
62.607223
 30
0.0
 11
92.839804
 21
63.05272
 31
0.0
  0
LINE
  5
C8D5
  8
ALPHA
 10
91.709829
 20
61.37003
 30
0.0
 11
92.039119
 21
61.699319
 31
0.0
  0
LINE
  5
C8D6
  8
ALPHA
 10
91.83535
 20
61.371286
 30
0.0
 11
92.121962
 21
61.657898
 31
0.0
  0
LINE
  5
C8D7
  8
ALPHA
 10
92.01087
 20
61.263964
 30
0.0
 11
92.263383
 21
61.516476
 31
0.0
  0
LINE
  5
C8D8
  8
ALPHA
 10
92.263383
 20
61.011451
 30
0.0
 11
92.121962
 21
60.87003
 31
0.0
  0
LINE
  5
C8D9
  8
ALPHA
 10
91.709829
 20
60.37003
 30
0.0
 11
92.039119
 21
60.699319
 31
0.0
  0
LINE
  5
C8DA
  8
ALPHA
 10
92.121962
 20
60.657898
 30
0.0
 11
91.83535
 21
60.371286
 31
0.0
  0
LINE
  5
C8DB
  8
ALPHA
 10
92.263383
 20
60.516476
 30
0.0
 11
92.01087
 21
60.263964
 31
0.0
  0
LINE
  5
C8DC
  8
ALPHA
 10
92.263383
 20
60.011451
 30
0.0
 11
92.121962
 21
59.87003
 31
0.0
  0
LINE
  5
C8DD
  8
ALPHA
 10
91.709829
 20
59.37003
 30
0.0
 11
92.039119
 21
59.699319
 31
0.0
  0
LINE
  5
C8DE
  8
ALPHA
 10
92.121962
 20
59.657898
 30
0.0
 11
91.83535
 21
59.371286
 31
0.0
  0
LINE
  5
C8DF
  8
ALPHA
 10
92.263383
 20
59.516476
 30
0.0
 11
92.01087
 21
59.263964
 31
0.0
  0
LINE
  5
C8E0
  8
ALPHA
 10
92.263383
 20
59.011451
 30
0.0
 11
92.121962
 21
58.87003
 31
0.0
  0
LINE
  5
C8E1
  8
ALPHA
 10
92.165896
 20
61.763964
 30
0.0
 11
92.874608
 21
61.763964
 31
0.0
  0
LINE
  5
C8E2
  8
ALPHA
 10
92.263383
 20
60.516476
 30
0.0
 11
92.121962
 21
60.657898
 31
0.0
  0
LINE
  5
C8E3
  8
ALPHA
 10
92.039119
 20
60.828608
 30
0.0
 11
91.709829
 21
61.157898
 31
0.0
  0
LINE
  5
C8E4
  8
ALPHA
 10
91.83535
 20
61.156641
 30
0.0
 11
92.121962
 21
60.87003
 31
0.0
  0
LINE
  5
C8E5
  8
ALPHA
 10
92.01087
 20
61.263964
 30
0.0
 11
92.263383
 21
61.011451
 31
0.0
  0
LINE
  5
C8E6
  8
ALPHA
 10
92.121962
 20
61.657898
 30
0.0
 11
92.263383
 21
61.516476
 31
0.0
  0
LINE
  5
C8E7
  8
ALPHA
 10
92.039119
 20
61.828608
 30
0.0
 11
91.709829
 21
62.157898
 31
0.0
  0
LINE
  5
C8E8
  8
ALPHA
 10
92.039119
 20
62.828608
 30
0.0
 11
91.709829
 21
63.157898
 31
0.0
  0
LINE
  5
C8E9
  8
ALPHA
 10
92.039119
 20
63.828608
 30
0.0
 11
91.709829
 21
64.157898
 31
0.0
  0
ARC
  5
C8EA
  8
ALPHA
 10
92.011515
 20
63.69641
 30
0.0
 40
0.1
 50
44.200498
 51
58.561486
  0
ARC
  5
C8EB
  8
ALPHA
 10
95.165896
 20
66.763964
 30
0.0
 40
4.3
 50
224.200498
 51
225.799502
  0
ARC
  5
C8EC
  8
ALPHA
 10
92.098342
 20
63.609584
 30
0.0
 40
0.1
 50
328.0
 51
45.799502
  0
ARC
  5
C8ED
  8
ALPHA
 10
95.165896
 20
66.763964
 30
0.0
 40
5.15
 50
232.398992
 51
234.310449
  0
ARC
  5
C8EE
  8
ALPHA
 10
92.278101
 20
62.743623
 30
0.0
 40
0.2
 50
234.310082
 51
317.0
  0
ARC
  5
C8EF
  8
ALPHA
 10
92.015896
 20
61.763964
 30
0.0
 40
0.15
 50
315.0
 51
0.0
  0
ARC
  5
C8F0
  8
ALPHA
 10
92.015896
 20
60.763964
 30
0.0
 40
0.15
 50
315.0
 51
45.0
  0
ARC
  5
C8F1
  8
ALPHA
 10
92.015896
 20
59.763964
 30
0.0
 40
0.15
 50
315.0
 51
45.0
  0
ARC
  5
C8F2
  8
ALPHA
 10
91.942672
 20
59.263964
 30
0.0
 40
0.151777
 50
135.0
 51
225.0
  0
ARC
  5
C8F3
  8
ALPHA
 10
91.942672
 20
60.263964
 30
0.0
 40
0.151777
 50
135.0
 51
225.0
  0
ARC
  5
C8F4
  8
ALPHA
 10
91.942672
 20
61.263964
 30
0.0
 40
0.151777
 50
135.0
 51
225.0
  0
ARC
  5
C8F5
  8
ALPHA
 10
92.015896
 20
61.763964
 30
0.0
 40
0.35
 50
315.0
 51
0.0
  0
ARC
  5
C8F6
  8
ALPHA
 10
92.015896
 20
60.763964
 30
0.0
 40
0.35
 50
315.0
 51
45.0
  0
ARC
  5
C8F7
  8
ALPHA
 10
92.015896
 20
59.763964
 30
0.0
 40
0.35
 50
315.0
 51
45.0
  0
ARC
  5
C8F8
  8
ALPHA
 10
91.815896
 20
59.263964
 30
0.0
 40
0.15
 50
135.0
 51
225.0
  0
ARC
  5
C8F9
  8
ALPHA
 10
91.815896
 20
60.263964
 30
0.0
 40
0.15
 50
135.0
 51
225.0
  0
ARC
  5
C8FA
  8
ALPHA
 10
91.815896
 20
61.263964
 30
0.0
 40
0.15
 50
135.0
 51
225.0
  0
ARC
  5
C8FB
  8
ALPHA
 10
91.815896
 20
62.263964
 30
0.0
 40
0.15
 50
135.0
 51
225.0
  0
ARC
  5
C8FC
  8
ALPHA
 10
91.815896
 20
63.263964
 30
0.0
 40
0.15
 50
135.0
 51
225.0
  0
ARC
  5
C8FD
  8
ALPHA
 10
91.815896
 20
64.263964
 30
0.0
 40
0.15
 50
135.0
 51
225.0
  0
ARC
  5
C8FE
  8
ALPHA
 10
91.974474
 20
59.763964
 30
0.0
 40
0.091421
 50
315.0
 51
45.0
  0
ARC
  5
C8FF
  8
ALPHA
 10
91.974474
 20
60.763964
 30
0.0
 40
0.091421
 50
315.0
 51
45.0
  0
ARC
  5
C900
  8
ALPHA
 10
91.974474
 20
61.763964
 30
0.0
 40
0.091421
 50
315.0
 51
45.0
  0
ARC
  5
C901
  8
ALPHA
 10
91.974474
 20
62.763964
 30
0.0
 40
0.091421
 50
315.0
 51
45.0
  0
ARC
  5
C902
  8
ALPHA
 10
91.974474
 20
63.763964
 30
0.0
 40
0.091421
 50
315.0
 51
45.0
  0
LINE
  5
C903
  8
ALPHA
 10
91.790896
 20
61.263964
 30
0.0
 11
92.01087
 21
61.263964
 31
0.0
  0
LINE
  5
C904
  8
ALPHA
 10
92.01087
 20
60.263964
 30
0.0
 11
91.790896
 21
60.263964
 31
0.0
  0
LINE
  5
C905
  8
ALPHA
 10
92.01087
 20
59.263964
 30
0.0
 11
91.790896
 21
59.263964
 31
0.0
  0
LINE
  5
C906
  8
ALPHA
 10
92.365896
 20
57.763964
 30
0.0
 11
92.165896
 21
57.763964
 31
0.0
  0
LINE
  5
C907
  8
ALPHA
 10
92.039119
 20
56.828608
 30
0.0
 11
91.709829
 21
57.157898
 31
0.0
  0
LINE
  5
C908
  8
ALPHA
 10
92.039119
 20
57.828608
 30
0.0
 11
91.709829
 21
58.157898
 31
0.0
  0
LINE
  5
C909
  8
ALPHA
 10
91.83535
 20
58.156641
 30
0.0
 11
92.121962
 21
57.87003
 31
0.0
  0
LINE
  5
C90A
  8
ALPHA
 10
92.01087
 20
58.263964
 30
0.0
 11
92.263383
 21
58.011451
 31
0.0
  0
LINE
  5
C90B
  8
ALPHA
 10
92.263383
 20
58.516476
 30
0.0
 11
92.121962
 21
58.657898
 31
0.0
  0
LINE
  5
C90C
  8
ALPHA
 10
92.165896
 20
57.763964
 30
0.0
 11
92.165896
 21
57.550411
 31
0.0
  0
LINE
  5
C90D
  8
ALPHA
 10
92.365896
 20
57.763964
 30
0.0
 11
92.365896
 21
57.11477
 31
0.0
  0
LINE
  5
C90E
  8
ALPHA
 10
91.709829
 20
58.37003
 30
0.0
 11
92.039119
 21
58.699319
 31
0.0
  0
LINE
  5
C90F
  8
ALPHA
 10
92.121962
 20
58.657898
 30
0.0
 11
91.83535
 21
58.371286
 31
0.0
  0
LINE
  5
C910
  8
ALPHA
 10
92.263383
 20
58.516476
 30
0.0
 11
92.01087
 21
58.263964
 31
0.0
  0
LINE
  5
C911
  8
ALPHA
 10
92.263383
 20
58.011451
 30
0.0
 11
92.121962
 21
57.87003
 31
0.0
  0
LINE
  5
C912
  8
ALPHA
 10
91.709829
 20
57.37003
 30
0.0
 11
92.039119
 21
57.699319
 31
0.0
  0
ARC
  5
C913
  8
ALPHA
 10
95.165896
 20
66.763964
 30
0.0
 40
10.0
 50
249.856216
 51
253.551387
  0
ARC
  5
C914
  8
ALPHA
 10
92.015896
 20
57.763964
 30
0.0
 40
0.15
 50
0.0
 51
45.0
  0
ARC
  5
C915
  8
ALPHA
 10
91.942672
 20
58.263964
 30
0.0
 40
0.151777
 50
135.0
 51
225.0
  0
ARC
  5
C916
  8
ALPHA
 10
92.015896
 20
57.763964
 30
0.0
 40
0.35
 50
0.0
 51
45.0
  0
ARC
  5
C917
  8
ALPHA
 10
91.815896
 20
57.263964
 30
0.0
 40
0.15
 50
135.0
 51
225.0
  0
ARC
  5
C918
  8
ALPHA
 10
91.815896
 20
58.263964
 30
0.0
 40
0.15
 50
135.0
 51
225.0
  0
ARC
  5
C919
  8
ALPHA
 10
91.974474
 20
57.763964
 30
0.0
 40
0.091421
 50
315.0
 51
45.0
  0
LINE
  5
C91A
  8
ALPHA
 10
92.01087
 20
58.263964
 30
0.0
 11
91.790896
 21
58.263964
 31
0.0
  0
ARC
  5
C91B
  8
ALPHA
 10
92.015896
 20
58.763964
 30
0.0
 40
0.15
 50
315.0
 51
45.0
  0
ARC
  5
C91C
  8
ALPHA
 10
92.015896
 20
58.763964
 30
0.0
 40
0.35
 50
315.0
 51
45.0
  0
ARC
  5
C91D
  8
ALPHA
 10
91.974474
 20
58.763964
 30
0.0
 40
0.091421
 50
315.0
 51
45.0
  0
ARC
  5
C91E
  8
ALPHA
 10
92.91294
 20
62.98452
 30
0.0
 40
0.1
 50
59.200498
 51
137.0
  0
ARC
  5
C91F
  8
ALPHA
 10
93.128076
 20
62.252889
 30
0.0
 40
0.2
 50
163.0
 51
245.696522
  0
LINE
  5
C920
  8
ALPHA
 10
91.709829
 20
64.37003
 30
0.0
 11
92.039119
 21
64.699319
 31
0.0
  0
ARC
  5
C921
  8
ALPHA
 10
95.165896
 20
66.763964
 30
0.0
 40
5.15
 50
290.689802
 51
294.310193
  0
ARC
  5
C922
  8
ALPHA
 10
95.165896
 20
66.763964
 30
0.0
 40
5.5
 50
245.380023
 51
294.619977
  0
ARC
  5
C923
  8
ALPHA
 10
98.515896
 20
65.263964
 30
0.0
 40
0.15
 50
315.0
 51
45.0
  0
ARC
  5
C924
  8
ALPHA
 10
98.515896
 20
66.263964
 30
0.0
 40
0.15
 50
315.0
 51
45.0
  0
ARC
  5
C925
  8
ALPHA
 10
98.515896
 20
67.263964
 30
0.0
 40
0.15
 50
315.0
 51
45.0
  0
ARC
  5
C926
  8
ALPHA
 10
98.515896
 20
68.263964
 30
0.0
 40
0.15
 50
315.0
 51
45.0
  0
ARC
  5
C927
  8
ALPHA
 10
98.30183
 20
62.934027
 30
0.0
 40
0.2
 50
24.176246
 51
32.0
  0
ARC
  5
C928
  8
ALPHA
 10
98.389119
 20
59.263964
 30
0.0
 40
0.151777
 50
315.0
 51
45.0
  0
ARC
  5
C929
  8
ALPHA
 10
98.389119
 20
60.263964
 30
0.0
 40
0.151777
 50
315.0
 51
45.0
  0
ARC
  5
C92A
  8
ALPHA
 10
98.389119
 20
61.263964
 30
0.0
 40
0.151777
 50
315.0
 51
45.0
  0
ARC
  5
C92B
  8
ALPHA
 10
98.515896
 20
59.263964
 30
0.0
 40
0.15
 50
315.0
 51
45.0
  0
ARC
  5
C92C
  8
ALPHA
 10
98.515896
 20
60.263964
 30
0.0
 40
0.15
 50
315.0
 51
45.0
  0
ARC
  5
C92D
  8
ALPHA
 10
98.515896
 20
61.263964
 30
0.0
 40
0.15
 50
315.0
 51
45.0
  0
ARC
  5
C92E
  8
ALPHA
 10
98.515896
 20
62.263964
 30
0.0
 40
0.15
 50
315.0
 51
45.0
  0
ARC
  5
C92F
  8
ALPHA
 10
98.515896
 20
63.263964
 30
0.0
 40
0.15
 50
315.0
 51
45.0
  0
ARC
  5
C930
  8
ALPHA
 10
98.515896
 20
64.263964
 30
0.0
 40
0.15
 50
315.0
 51
45.0
  0
ARC
  5
C931
  8
ALPHA
 10
98.389119
 20
58.263964
 30
0.0
 40
0.151777
 50
315.0
 51
45.0
  0
ARC
  5
C932
  8
ALPHA
 10
98.515896
 20
57.263964
 30
0.0
 40
0.15
 50
315.0
 51
45.0
  0
ARC
  5
C933
  8
ALPHA
 10
98.515896
 20
58.263964
 30
0.0
 40
0.15
 50
315.0
 51
45.0
  0
LINE
  5
C934
  8
ALPHA
 10
98.621962
 20
80.157898
 30
0.0
 11
98.292672
 21
79.828608
 31
0.0
  0
LINE
  5
C935
  8
ALPHA
 10
98.621962
 20
79.157898
 30
0.0
 11
98.292672
 21
78.828608
 31
0.0
  0
LINE
  5
C936
  8
ALPHA
 10
98.621962
 20
78.157898
 30
0.0
 11
98.292672
 21
77.828608
 31
0.0
  0
LINE
  5
C937
  8
ALPHA
 10
98.621962
 20
77.157898
 30
0.0
 11
98.292672
 21
76.828608
 31
0.0
  0
LINE
  5
C938
  8
ALPHA
 10
98.292672
 20
76.699319
 30
0.0
 11
98.621962
 21
76.37003
 31
0.0
  0
LINE
  5
C939
  8
ALPHA
 10
98.292672
 20
77.699319
 30
0.0
 11
98.621962
 21
77.37003
 31
0.0
  0
LINE
  5
C93A
  8
ALPHA
 10
98.292672
 20
78.699319
 30
0.0
 11
98.621962
 21
78.37003
 31
0.0
  0
LINE
  5
C93B
  8
ALPHA
 10
98.292672
 20
79.699319
 30
0.0
 11
98.621962
 21
79.37003
 31
0.0
  0
ARC
  5
C93C
  8
ALPHA
 10
95.165896
 20
66.763964
 30
0.0
 40
10.0
 50
69.856216
 51
73.551387
  0
LINE
  5
C93D
  8
ALPHA
 10
98.209829
 20
74.87003
 30
0.0
 11
98.496441
 21
75.156641
 31
0.0
  0
LINE
  5
C93E
  8
ALPHA
 10
98.621962
 20
75.157898
 30
0.0
 11
98.292672
 21
74.828608
 31
0.0
  0
LINE
  5
C93F
  8
ALPHA
 10
98.209829
 20
73.87003
 30
0.0
 11
98.496441
 21
74.156641
 31
0.0
  0
LINE
  5
C940
  8
ALPHA
 10
98.621962
 20
74.157898
 30
0.0
 11
98.292672
 21
73.828608
 31
0.0
  0
LINE
  5
C941
  8
ALPHA
 10
98.209829
 20
72.87003
 30
0.0
 11
98.496441
 21
73.156641
 31
0.0
  0
LINE
  5
C942
  8
ALPHA
 10
98.621962
 20
73.157898
 30
0.0
 11
98.292672
 21
72.828608
 31
0.0
  0
LINE
  5
C943
  8
ALPHA
 10
98.496441
 20
72.156641
 30
0.0
 11
98.209829
 21
71.87003
 31
0.0
  0
LINE
  5
C944
  8
ALPHA
 10
98.621962
 20
72.157898
 30
0.0
 11
98.292672
 21
71.828608
 31
0.0
  0
LINE
  5
C945
  8
ALPHA
 10
98.621962
 20
71.157898
 30
0.0
 11
98.292672
 21
70.828608
 31
0.0
  0
LINE
  5
C946
  8
ALPHA
 10
98.292672
 20
70.699319
 30
0.0
 11
98.621962
 21
70.37003
 31
0.0
  0
LINE
  5
C947
  8
ALPHA
 10
98.292672
 20
71.699319
 30
0.0
 11
98.621962
 21
71.37003
 31
0.0
  0
LINE
  5
C948
  8
ALPHA
 10
98.496441
 20
72.371286
 30
0.0
 11
98.209829
 21
72.657898
 31
0.0
  0
LINE
  5
C949
  8
ALPHA
 10
98.292672
 20
72.699319
 30
0.0
 11
98.621962
 21
72.37003
 31
0.0
  0
LINE
  5
C94A
  8
ALPHA
 10
98.496441
 20
73.371286
 30
0.0
 11
98.209829
 21
73.657898
 31
0.0
  0
LINE
  5
C94B
  8
ALPHA
 10
98.292672
 20
73.699319
 30
0.0
 11
98.621962
 21
73.37003
 31
0.0
  0
LINE
  5
C94C
  8
ALPHA
 10
98.496441
 20
74.371286
 30
0.0
 11
98.209829
 21
74.657898
 31
0.0
  0
LINE
  5
C94D
  8
ALPHA
 10
98.292672
 20
74.699319
 30
0.0
 11
98.621962
 21
74.37003
 31
0.0
  0
LINE
  5
C94E
  8
ALPHA
 10
98.496441
 20
75.371286
 30
0.0
 11
98.209829
 21
75.657898
 31
0.0
  0
LINE
  5
C94F
  8
ALPHA
 10
98.292672
 20
75.699319
 30
0.0
 11
98.621962
 21
75.37003
 31
0.0
  0
LINE
  5
C950
  8
ALPHA
 10
98.320921
 20
74.263964
 30
0.0
 11
98.540896
 21
74.263964
 31
0.0
  0
LINE
  5
C951
  8
ALPHA
 10
98.320921
 20
73.263964
 30
0.0
 11
98.540896
 21
73.263964
 31
0.0
  0
LINE
  5
C952
  8
ALPHA
 10
98.540896
 20
72.263964
 30
0.0
 11
98.320921
 21
72.263964
 31
0.0
  0
LINE
  5
C953
  8
ALPHA
 10
98.320921
 20
75.263964
 30
0.0
 11
98.540896
 21
75.263964
 31
0.0
  0
LINE
  5
C954
  8
ALPHA
 10
98.621962
 20
70.157898
 30
0.0
 11
98.292672
 21
69.828608
 31
0.0
  0
LINE
  5
C955
  8
ALPHA
 10
98.621962
 20
69.157898
 30
0.0
 11
98.292672
 21
68.828608
 31
0.0
  0
LINE
  5
C956
  8
ALPHA
 10
98.292672
 20
69.699319
 30
0.0
 11
98.621962
 21
69.37003
 31
0.0
  0
LINE
  5
C957
  8
ALPHA
 10
98.148645
 20
69.971335
 30
0.0
 11
98.47144
 21
70.487916
 31
0.0
  0
LINE
  5
C958
  8
ALPHA
 10
98.621962
 20
76.157898
 30
0.0
 11
98.292672
 21
75.828608
 31
0.0
  0
ARC
  5
C959
  8
ALPHA
 10
98.357317
 20
79.763964
 30
0.0
 40
0.091421
 50
135.0
 51
225.0
  0
ARC
  5
C95A
  8
ALPHA
 10
98.357317
 20
78.763964
 30
0.0
 40
0.091421
 50
135.0
 51
225.0
  0
ARC
  5
C95B
  8
ALPHA
 10
98.357317
 20
77.763964
 30
0.0
 40
0.091421
 50
135.0
 51
225.0
  0
ARC
  5
C95C
  8
ALPHA
 10
98.357317
 20
76.763964
 30
0.0
 40
0.091421
 50
135.0
 51
225.0
  0
LINE
  5
C95D
  8
ALPHA
 10
91.709829
 20
79.37003
 30
0.0
 11
92.039119
 21
79.699319
 31
0.0
  0
LINE
  5
C95E
  8
ALPHA
 10
91.709829
 20
78.37003
 30
0.0
 11
92.039119
 21
78.699319
 31
0.0
  0
LINE
  5
C95F
  8
ALPHA
 10
91.709829
 20
77.37003
 30
0.0
 11
92.039119
 21
77.699319
 31
0.0
  0
LINE
  5
C960
  8
ALPHA
 10
91.709829
 20
76.37003
 30
0.0
 11
92.039119
 21
76.699319
 31
0.0
  0
LINE
  5
C961
  8
ALPHA
 10
92.039119
 20
76.828608
 30
0.0
 11
91.709829
 21
77.157898
 31
0.0
  0
LINE
  5
C962
  8
ALPHA
 10
92.039119
 20
77.828608
 30
0.0
 11
91.709829
 21
78.157898
 31
0.0
  0
LINE
  5
C963
  8
ALPHA
 10
92.039119
 20
78.828608
 30
0.0
 11
91.709829
 21
79.157898
 31
0.0
  0
LINE
  5
C964
  8
ALPHA
 10
92.039119
 20
79.828608
 30
0.0
 11
91.709829
 21
80.157898
 31
0.0
  0
ARC
  5
C965
  8
ALPHA
 10
95.165896
 20
66.763964
 30
0.0
 40
10.0
 50
106.448613
 51
110.143784
  0
ARC
  5
C966
  8
ALPHA
 10
91.815896
 20
76.263964
 30
0.0
 40
0.15
 50
135.0
 51
225.0
  0
ARC
  5
C967
  8
ALPHA
 10
91.815896
 20
77.263964
 30
0.0
 40
0.15
 50
135.0
 51
225.0
  0
ARC
  5
C968
  8
ALPHA
 10
91.815896
 20
78.263964
 30
0.0
 40
0.15
 50
135.0
 51
225.0
  0
ARC
  5
C969
  8
ALPHA
 10
91.815896
 20
79.263964
 30
0.0
 40
0.15
 50
135.0
 51
225.0
  0
ARC
  5
C96A
  8
ALPHA
 10
91.974474
 20
76.763964
 30
0.0
 40
0.091421
 50
315.0
 51
45.0
  0
ARC
  5
C96B
  8
ALPHA
 10
91.974474
 20
77.763964
 30
0.0
 40
0.091421
 50
315.0
 51
45.0
  0
ARC
  5
C96C
  8
ALPHA
 10
91.974474
 20
78.763964
 30
0.0
 40
0.091421
 50
315.0
 51
45.0
  0
ARC
  5
C96D
  8
ALPHA
 10
91.974474
 20
79.763964
 30
0.0
 40
0.091421
 50
315.0
 51
45.0
  0
LINE
  5
C96E
  8
ALPHA
 10
98.068408
 20
75.516476
 30
0.0
 11
98.209829
 21
75.657898
 31
0.0
  0
LINE
  5
C96F
  8
ALPHA
 10
98.068408
 20
75.011451
 30
0.0
 11
98.320921
 21
75.263964
 31
0.0
  0
LINE
  5
C970
  8
ALPHA
 10
98.068408
 20
74.516476
 30
0.0
 11
98.209829
 21
74.657898
 31
0.0
  0
LINE
  5
C971
  8
ALPHA
 10
98.068408
 20
74.011451
 30
0.0
 11
98.320921
 21
74.263964
 31
0.0
  0
LINE
  5
C972
  8
ALPHA
 10
97.90742
 20
70.920704
 30
0.0
 11
97.491987
 21
70.475207
 31
0.0
  0
LINE
  5
C973
  8
ALPHA
 10
98.068408
 20
73.516476
 30
0.0
 11
98.209829
 21
73.657898
 31
0.0
  0
LINE
  5
C974
  8
ALPHA
 10
98.068408
 20
73.011451
 30
0.0
 11
98.320921
 21
73.263964
 31
0.0
  0
LINE
  5
C975
  8
ALPHA
 10
98.068408
 20
72.516476
 30
0.0
 11
98.209829
 21
72.657898
 31
0.0
  0
LINE
  5
C976
  8
ALPHA
 10
98.320921
 20
72.263964
 30
0.0
 11
98.068408
 21
72.011451
 31
0.0
  0
LINE
  5
C977
  8
ALPHA
 10
97.216881
 20
70.634039
 30
0.0
 11
97.394976
 21
71.216563
 31
0.0
  0
LINE
  5
C978
  8
ALPHA
 10
98.165896
 20
75.763964
 30
0.0
 11
98.165896
 21
75.977516
 31
0.0
  0
LINE
  5
C979
  8
ALPHA
 10
98.165896
 20
71.763964
 30
0.0
 11
97.457183
 21
71.763964
 31
0.0
  0
LINE
  5
C97A
  8
ALPHA
 10
98.209829
 20
71.87003
 30
0.0
 11
98.068408
 21
72.011451
 31
0.0
  0
LINE
  5
C97B
  8
ALPHA
 10
98.320921
 20
72.263964
 30
0.0
 11
98.068408
 21
72.516476
 31
0.0
  0
LINE
  5
C97C
  8
ALPHA
 10
98.068408
 20
73.011451
 30
0.0
 11
98.209829
 21
72.87003
 31
0.0
  0
LINE
  5
C97D
  8
ALPHA
 10
98.320921
 20
73.263964
 30
0.0
 11
98.068408
 21
73.516476
 31
0.0
  0
LINE
  5
C97E
  8
ALPHA
 10
98.068408
 20
74.011451
 30
0.0
 11
98.209829
 21
73.87003
 31
0.0
  0
LINE
  5
C97F
  8
ALPHA
 10
97.965896
 20
75.763964
 30
0.0
 11
98.165896
 21
75.763964
 31
0.0
  0
LINE
  5
C980
  8
ALPHA
 10
98.320921
 20
74.263964
 30
0.0
 11
98.068408
 21
74.516476
 31
0.0
  0
LINE
  5
C981
  8
ALPHA
 10
98.068408
 20
75.011451
 30
0.0
 11
98.209829
 21
74.87003
 31
0.0
  0
LINE
  5
C982
  8
ALPHA
 10
98.320921
 20
75.263964
 30
0.0
 11
98.068408
 21
75.516476
 31
0.0
  0
ARC
  5
C983
  8
ALPHA
 10
95.165896
 20
66.763964
 30
0.0
 40
5.15
 50
52.398992
 51
54.310449
  0
ARC
  5
C984
  8
ALPHA
 10
98.05369
 20
70.784304
 30
0.0
 40
0.2
 50
54.310082
 51
137.0
  0
ARC
  5
C985
  8
ALPHA
 10
97.418851
 20
70.543407
 30
0.0
 40
0.1
 50
239.200498
 51
317.0
  0
ARC
  5
C986
  8
ALPHA
 10
95.165896
 20
66.763964
 30
0.0
 40
4.3
 50
59.200498
 51
60.799502
  0
ARC
  5
C987
  8
ALPHA
 10
97.312511
 20
70.604802
 30
0.0
 40
0.1
 50
163.0
 51
240.799502
  0
ARC
  5
C988
  8
ALPHA
 10
97.203715
 20
71.275038
 30
0.0
 40
0.2
 50
343.0
 51
65.696522
  0
ARC
  5
C989
  8
ALPHA
 10
98.315896
 20
75.763964
 30
0.0
 40
0.15
 50
180.0
 51
225.0
  0
ARC
  5
C98A
  8
ALPHA
 10
98.315896
 20
74.763964
 30
0.0
 40
0.15
 50
135.0
 51
225.0
  0
ARC
  5
C98B
  8
ALPHA
 10
98.315896
 20
73.763964
 30
0.0
 40
0.15
 50
135.0
 51
225.0
  0
ARC
  5
C98C
  8
ALPHA
 10
98.315896
 20
72.763964
 30
0.0
 40
0.15
 50
135.0
 51
225.0
  0
ARC
  5
C98D
  8
ALPHA
 10
98.315896
 20
71.763964
 30
0.0
 40
0.15
 50
135.0
 51
180.0
  0
ARC
  5
C98E
  8
ALPHA
 10
98.315896
 20
74.763964
 30
0.0
 40
0.35
 50
135.0
 51
225.0
  0
ARC
  5
C98F
  8
ALPHA
 10
98.315896
 20
73.763964
 30
0.0
 40
0.35
 50
135.0
 51
225.0
  0
ARC
  5
C990
  8
ALPHA
 10
98.315896
 20
72.763964
 30
0.0
 40
0.35
 50
135.0
 51
225.0
  0
ARC
  5
C991
  8
ALPHA
 10
98.315896
 20
71.763964
 30
0.0
 40
0.35
 50
135.0
 51
180.0
  0
ARC
  5
C992
  8
ALPHA
 10
98.315896
 20
75.763964
 30
0.0
 40
0.35
 50
180.0
 51
225.0
  0
ARC
  5
C993
  8
ALPHA
 10
98.357317
 20
75.763964
 30
0.0
 40
0.091421
 50
135.0
 51
225.0
  0
ARC
  5
C994
  8
ALPHA
 10
98.357317
 20
74.763964
 30
0.0
 40
0.091421
 50
135.0
 51
225.0
  0
ARC
  5
C995
  8
ALPHA
 10
98.357317
 20
73.763964
 30
0.0
 40
0.091421
 50
135.0
 51
225.0
  0
ARC
  5
C996
  8
ALPHA
 10
98.357317
 20
72.763964
 30
0.0
 40
0.091421
 50
135.0
 51
225.0
  0
ARC
  5
C997
  8
ALPHA
 10
98.357317
 20
71.763964
 30
0.0
 40
0.091421
 50
135.0
 51
225.0
  0
ARC
  5
C998
  8
ALPHA
 10
98.357317
 20
70.763964
 30
0.0
 40
0.091421
 50
135.0
 51
225.0
  0
ARC
  5
C999
  8
ALPHA
 10
95.165896
 20
66.763964
 30
0.0
 40
4.3
 50
44.200498
 51
45.799502
  0
ARC
  5
C99A
  8
ALPHA
 10
98.233449
 20
69.918344
 30
0.0
 40
0.1
 50
148.0
 51
225.799502
  0
ARC
  5
C99B
  8
ALPHA
 10
98.320276
 20
69.831517
 30
0.0
 40
0.1
 50
224.200498
 51
238.561486
  0
ARC
  5
C99C
  8
ALPHA
 10
98.357317
 20
69.763964
 30
0.0
 40
0.091421
 50
135.0
 51
225.0
  0
ARC
  5
C99D
  8
ALPHA
 10
98.357317
 20
68.763964
 30
0.0
 40
0.091421
 50
135.0
 51
225.0
  0
LINE
  5
C99E
  8
ALPHA
 10
96.738161
 20
71.488625
 30
0.0
 11
96.452187
 21
70.950786
 31
0.0
  0
LINE
  5
C99F
  8
ALPHA
 10
95.515896
 20
73.263964
 30
0.0
 11
95.515896
 21
75.463964
 31
0.0
  0
LINE
  5
C9A0
  8
ALPHA
 10
95.461755
 20
71.734569
 30
0.0
 11
95.324728
 21
71.14104
 31
0.0
  0
LINE
  5
C9A1
  8
ALPHA
 10
96.145346
 20
71.033004
 30
0.0
 11
96.166605
 21
71.641773
 31
0.0
  0
LINE
  5
C9A2
  8
ALPHA
 10
95.515896
 20
75.463964
 30
0.0
 11
95.407753
 21
75.877249
 31
0.0
  0
ARC
  5
C9A3
  8
ALPHA
 10
96.91475
 20
71.394731
 30
0.0
 40
0.2
 50
69.303621
 51
152.0
  0
ARC
  5
C9A4
  8
ALPHA
 10
96.363892
 20
70.997733
 30
0.0
 40
0.1
 50
254.200498
 51
332.0
  0
ARC
  5
C9A5
  8
ALPHA
 10
95.165896
 20
66.763964
 30
0.0
 40
4.3
 50
74.200498
 51
75.799502
  0
ARC
  5
C9A6
  8
ALPHA
 10
96.245285
 20
71.029514
 30
0.0
 40
0.1
 50
178.0
 51
255.799502
  0
ARC
  5
C9A7
  8
ALPHA
 10
95.966727
 20
71.648753
 30
0.0
 40
0.2
 50
358.0
 51
80.687808
  0
ARC
  5
C9A8
  8
ALPHA
 10
95.165896
 20
66.763964
 30
0.0
 40
5.15
 50
80.689469
 51
84.31071
  0
ARC
  5
C9A9
  8
ALPHA
 10
95.656629
 20
71.689578
 30
0.0
 40
0.2
 50
84.316807
 51
167.0
  0
ARC
  5
C9AA
  8
ALPHA
 10
95.227291
 20
71.163535
 30
0.0
 40
0.1
 50
269.200498
 51
347.0
  0
ARC
  5
C9AB
  8
ALPHA
 10
95.165896
 20
66.763964
 30
0.0
 40
4.3
 50
89.200498
 51
90.799502
  0
ARC
  5
C9AC
  8
ALPHA
 10
95.1045
 20
71.163535
 30
0.0
 40
0.1
 50
193.0
 51
270.799502
  0
LINE
  5
C9AD
  8
ALPHA
 10
94.924038
 20
75.877249
 30
0.0
 11
94.815896
 21
75.463964
 31
0.0
  0
LINE
  5
C9AE
  8
ALPHA
 10
94.165186
 20
71.641773
 30
0.0
 11
94.186445
 21
71.033004
 31
0.0
  0
LINE
  5
C9AF
  8
ALPHA
 10
94.815896
 20
75.463964
 30
0.0
 11
94.815896
 21
73.263964
 31
0.0
  0
LINE
  5
C9B0
  8
ALPHA
 10
93.879604
 20
70.950786
 30
0.0
 11
93.59363
 21
71.488625
 31
0.0
  0
LINE
  5
C9B1
  8
ALPHA
 10
92.936815
 20
71.216563
 30
0.0
 11
93.11491
 21
70.634039
 31
0.0
  0
ARC
  5
C9B2
  8
ALPHA
 10
94.675162
 20
71.689578
 30
0.0
 40
0.2
 50
13.0
 51
95.683193
  0
ARC
  5
C9B3
  8
ALPHA
 10
95.165896
 20
66.763964
 30
0.0
 40
5.15
 50
95.68929
 51
99.310531
  0
ARC
  5
C9B4
  8
ALPHA
 10
94.365064
 20
71.648753
 30
0.0
 40
0.2
 50
99.312192
 51
182.0
  0
ARC
  5
C9B5
  8
ALPHA
 10
94.086506
 20
71.029514
 30
0.0
 40
0.1
 50
284.200498
 51
2.0
  0
ARC
  5
C9B6
  8
ALPHA
 10
95.165896
 20
66.763964
 30
0.0
 40
4.3
 50
104.200498
 51
105.799502
  0
ARC
  5
C9B7
  8
ALPHA
 10
93.967899
 20
70.997733
 30
0.0
 40
0.1
 50
208.0
 51
285.799502
  0
ARC
  5
C9B8
  8
ALPHA
 10
93.417041
 20
71.394731
 30
0.0
 40
0.2
 50
28.0
 51
110.696379
  0
ARC
  5
C9B9
  8
ALPHA
 10
95.165896
 20
66.763964
 30
0.0
 40
5.15
 50
110.689802
 51
114.310193
  0
ARC
  5
C9BA
  8
ALPHA
 10
93.01928
 20
70.604802
 30
0.0
 40
0.1
 50
299.200498
 51
17.0
  0
ARC
  5
C9BB
  8
ALPHA
 10
95.165896
 20
66.763964
 30
0.0
 40
4.3
 50
119.200498
 51
120.799502
  0
LINE
  5
C9BC
  8
ALPHA
 10
95.007063
 20
71.14104
 30
0.0
 11
94.870036
 21
71.734569
 31
0.0
  0
LINE
  5
C9BD
  8
ALPHA
 10
94.815896
 20
73.263964
 30
0.0
 11
95.515896
 21
73.263964
 31
0.0
  0
ARC
  5
C9BE
  8
ALPHA
 10
95.165896
 20
75.813964
 30
0.0
 40
0.25
 50
14.663584
 51
165.336416
  0
LINE
  5
C9BF
  8
ALPHA
 10
91.709829
 20
75.37003
 30
0.0
 11
92.039119
 21
75.699319
 31
0.0
  0
LINE
  5
C9C0
  8
ALPHA
 10
91.83535
 20
75.371286
 30
0.0
 11
92.121962
 21
75.657898
 31
0.0
  0
LINE
  5
C9C1
  8
ALPHA
 10
92.01087
 20
75.263964
 30
0.0
 11
92.263383
 21
75.516476
 31
0.0
  0
LINE
  5
C9C2
  8
ALPHA
 10
92.263383
 20
75.011451
 30
0.0
 11
92.121962
 21
74.87003
 31
0.0
  0
LINE
  5
C9C3
  8
ALPHA
 10
91.709829
 20
74.37003
 30
0.0
 11
92.039119
 21
74.699319
 31
0.0
  0
LINE
  5
C9C4
  8
ALPHA
 10
92.121962
 20
74.657898
 30
0.0
 11
91.83535
 21
74.371286
 31
0.0
  0
LINE
  5
C9C5
  8
ALPHA
 10
92.263383
 20
74.516476
 30
0.0
 11
92.01087
 21
74.263964
 31
0.0
  0
LINE
  5
C9C6
  8
ALPHA
 10
92.263383
 20
74.011451
 30
0.0
 11
92.121962
 21
73.87003
 31
0.0
  0
LINE
  5
C9C7
  8
ALPHA
 10
91.709829
 20
73.37003
 30
0.0
 11
92.039119
 21
73.699319
 31
0.0
  0
LINE
  5
C9C8
  8
ALPHA
 10
92.121962
 20
73.657898
 30
0.0
 11
91.83535
 21
73.371286
 31
0.0
  0
LINE
  5
C9C9
  8
ALPHA
 10
92.263383
 20
73.516476
 30
0.0
 11
92.01087
 21
73.263964
 31
0.0
  0
LINE
  5
C9CA
  8
ALPHA
 10
92.263383
 20
73.011451
 30
0.0
 11
92.121962
 21
72.87003
 31
0.0
  0
LINE
  5
C9CB
  8
ALPHA
 10
91.709829
 20
72.37003
 30
0.0
 11
92.039119
 21
72.699319
 31
0.0
  0
LINE
  5
C9CC
  8
ALPHA
 10
92.121962
 20
72.657898
 30
0.0
 11
91.83535
 21
72.371286
 31
0.0
  0
LINE
  5
C9CD
  8
ALPHA
 10
92.263383
 20
72.516476
 30
0.0
 11
92.01087
 21
72.263964
 31
0.0
  0
LINE
  5
C9CE
  8
ALPHA
 10
92.263383
 20
72.011451
 30
0.0
 11
92.121962
 21
71.87003
 31
0.0
  0
LINE
  5
C9CF
  8
ALPHA
 10
91.709829
 20
71.37003
 30
0.0
 11
92.039119
 21
71.699319
 31
0.0
  0
LINE
  5
C9D0
  8
ALPHA
 10
91.709829
 20
70.37003
 30
0.0
 11
92.039119
 21
70.699319
 31
0.0
  0
LINE
  5
C9D1
  8
ALPHA
 10
92.165896
 20
75.763964
 30
0.0
 11
92.165896
 21
75.977516
 31
0.0
  0
LINE
  5
C9D2
  8
ALPHA
 10
92.039119
 20
70.828608
 30
0.0
 11
91.709829
 21
71.157898
 31
0.0
  0
LINE
  5
C9D3
  8
ALPHA
 10
92.039119
 20
71.828608
 30
0.0
 11
91.709829
 21
72.157898
 31
0.0
  0
LINE
  5
C9D4
  8
ALPHA
 10
91.83535
 20
72.156641
 30
0.0
 11
92.121962
 21
71.87003
 31
0.0
  0
LINE
  5
C9D5
  8
ALPHA
 10
92.01087
 20
72.263964
 30
0.0
 11
92.263383
 21
72.011451
 31
0.0
  0
LINE
  5
C9D6
  8
ALPHA
 10
92.263383
 20
72.516476
 30
0.0
 11
92.121962
 21
72.657898
 31
0.0
  0
LINE
  5
C9D7
  8
ALPHA
 10
92.039119
 20
72.828608
 30
0.0
 11
91.709829
 21
73.157898
 31
0.0
  0
LINE
  5
C9D8
  8
ALPHA
 10
91.83535
 20
73.156641
 30
0.0
 11
92.121962
 21
72.87003
 31
0.0
  0
LINE
  5
C9D9
  8
ALPHA
 10
92.01087
 20
73.263964
 30
0.0
 11
92.263383
 21
73.011451
 31
0.0
  0
LINE
  5
C9DA
  8
ALPHA
 10
92.263383
 20
73.516476
 30
0.0
 11
92.121962
 21
73.657898
 31
0.0
  0
LINE
  5
C9DB
  8
ALPHA
 10
92.039119
 20
73.828608
 30
0.0
 11
91.709829
 21
74.157898
 31
0.0
  0
LINE
  5
C9DC
  8
ALPHA
 10
91.83535
 20
74.156641
 30
0.0
 11
92.121962
 21
73.87003
 31
0.0
  0
LINE
  5
C9DD
  8
ALPHA
 10
92.01087
 20
74.263964
 30
0.0
 11
92.263383
 21
74.011451
 31
0.0
  0
LINE
  5
C9DE
  8
ALPHA
 10
92.263383
 20
74.516476
 30
0.0
 11
92.121962
 21
74.657898
 31
0.0
  0
LINE
  5
C9DF
  8
ALPHA
 10
92.039119
 20
74.828608
 30
0.0
 11
91.709829
 21
75.157898
 31
0.0
  0
LINE
  5
C9E0
  8
ALPHA
 10
91.83535
 20
75.156641
 30
0.0
 11
92.121962
 21
74.87003
 31
0.0
  0
LINE
  5
C9E1
  8
ALPHA
 10
92.839804
 20
70.475207
 30
0.0
 11
92.424371
 21
70.920704
 31
0.0
  0
LINE
  5
C9E2
  8
ALPHA
 10
92.165896
 20
71.763964
 30
0.0
 11
92.874608
 21
71.763964
 31
0.0
  0
LINE
  5
C9E3
  8
ALPHA
 10
92.01087
 20
75.263964
 30
0.0
 11
92.263383
 21
75.011451
 31
0.0
  0
LINE
  5
C9E4
  8
ALPHA
 10
92.121962
 20
75.657898
 30
0.0
 11
92.263383
 21
75.516476
 31
0.0
  0
LINE
  5
C9E5
  8
ALPHA
 10
92.165896
 20
75.763964
 30
0.0
 11
92.365896
 21
75.763964
 31
0.0
  0
ARC
  5
C9E6
  8
ALPHA
 10
92.278101
 20
70.784304
 30
0.0
 40
0.2
 50
43.0
 51
125.689918
  0
ARC
  5
C9E7
  8
ALPHA
 10
95.165896
 20
66.763964
 30
0.0
 40
5.15
 50
125.689551
 51
127.601008
  0
ARC
  5
C9E8
  8
ALPHA
 10
92.029961
 20
70.5939
 30
0.0
 40
0.2
 50
204.176246
 51
212.0
  0
ARC
  5
C9E9
  8
ALPHA
 10
92.015896
 20
75.763964
 30
0.0
 40
0.15
 50
315.0
 51
0.0
  0
ARC
  5
C9EA
  8
ALPHA
 10
92.015896
 20
71.763964
 30
0.0
 40
0.15
 50
0.0
 51
45.0
  0
ARC
  5
C9EB
  8
ALPHA
 10
92.015896
 20
72.763964
 30
0.0
 40
0.15
 50
315.0
 51
45.0
  0
ARC
  5
C9EC
  8
ALPHA
 10
92.015896
 20
73.763964
 30
0.0
 40
0.15
 50
315.0
 51
45.0
  0
ARC
  5
C9ED
  8
ALPHA
 10
92.015896
 20
74.763964
 30
0.0
 40
0.15
 50
315.0
 51
45.0
  0
ARC
  5
C9EE
  8
ALPHA
 10
91.942672
 20
72.263964
 30
0.0
 40
0.151777
 50
135.0
 51
225.0
  0
ARC
  5
C9EF
  8
ALPHA
 10
91.942672
 20
73.263964
 30
0.0
 40
0.151777
 50
135.0
 51
225.0
  0
ARC
  5
C9F0
  8
ALPHA
 10
91.942672
 20
74.263964
 30
0.0
 40
0.151777
 50
135.0
 51
225.0
  0
ARC
  5
C9F1
  8
ALPHA
 10
91.942672
 20
75.263964
 30
0.0
 40
0.151777
 50
135.0
 51
225.0
  0
ARC
  5
C9F2
  8
ALPHA
 10
92.015896
 20
73.763964
 30
0.0
 40
0.35
 50
315.0
 51
45.0
  0
ARC
  5
C9F3
  8
ALPHA
 10
92.015896
 20
74.763964
 30
0.0
 40
0.35
 50
315.0
 51
45.0
  0
ARC
  5
C9F4
  8
ALPHA
 10
92.015896
 20
75.763964
 30
0.0
 40
0.349999
 50
315.0
 51
0.0
  0
ARC
  5
C9F5
  8
ALPHA
 10
92.015896
 20
71.763964
 30
0.0
 40
0.35
 50
0.0
 51
45.0
  0
ARC
  5
C9F6
  8
ALPHA
 10
92.015896
 20
72.763964
 30
0.0
 40
0.35
 50
315.0
 51
45.0
  0
ARC
  5
C9F7
  8
ALPHA
 10
91.815896
 20
71.263964
 30
0.0
 40
0.15
 50
135.0
 51
225.0
  0
ARC
  5
C9F8
  8
ALPHA
 10
91.815896
 20
72.263964
 30
0.0
 40
0.15
 50
135.0
 51
225.0
  0
ARC
  5
C9F9
  8
ALPHA
 10
91.815896
 20
73.263964
 30
0.0
 40
0.15
 50
135.0
 51
225.0
  0
ARC
  5
C9FA
  8
ALPHA
 10
91.815896
 20
74.263964
 30
0.0
 40
0.15
 50
135.0
 51
225.0
  0
ARC
  5
C9FB
  8
ALPHA
 10
91.815896
 20
75.263964
 30
0.0
 40
0.15
 50
135.0
 51
225.0
  0
ARC
  5
C9FC
  8
ALPHA
 10
91.974474
 20
70.763964
 30
0.0
 40
0.091421
 50
315.0
 51
45.0
  0
ARC
  5
C9FD
  8
ALPHA
 10
91.974474
 20
71.763964
 30
0.0
 40
0.091421
 50
315.0
 51
45.0
  0
ARC
  5
C9FE
  8
ALPHA
 10
91.974474
 20
72.763964
 30
0.0
 40
0.091421
 50
315.0
 51
45.0
  0
ARC
  5
C9FF
  8
ALPHA
 10
91.974474
 20
73.763964
 30
0.0
 40
0.091421
 50
315.0
 51
45.0
  0
ARC
  5
CA00
  8
ALPHA
 10
91.974474
 20
74.763964
 30
0.0
 40
0.091421
 50
315.0
 51
45.0
  0
ARC
  5
CA01
  8
ALPHA
 10
91.974474
 20
75.763964
 30
0.0
 40
0.091421
 50
315.0
 51
45.0
  0
LINE
  5
CA02
  8
ALPHA
 10
92.01087
 20
74.263964
 30
0.0
 11
91.790896
 21
74.263964
 31
0.0
  0
LINE
  5
CA03
  8
ALPHA
 10
91.790896
 20
75.263964
 30
0.0
 11
92.01087
 21
75.263964
 31
0.0
  0
LINE
  5
CA04
  8
ALPHA
 10
92.01087
 20
72.263964
 30
0.0
 11
91.790896
 21
72.263964
 31
0.0
  0
LINE
  5
CA05
  8
ALPHA
 10
92.01087
 20
73.263964
 30
0.0
 11
91.790896
 21
73.263964
 31
0.0
  0
LINE
  5
CA06
  8
ALPHA
 10
91.709829
 20
69.37003
 30
0.0
 11
92.039119
 21
69.699319
 31
0.0
  0
LINE
  5
CA07
  8
ALPHA
 10
92.039119
 20
68.828608
 30
0.0
 11
91.709829
 21
69.157898
 31
0.0
  0
LINE
  5
CA08
  8
ALPHA
 10
92.039119
 20
69.828608
 30
0.0
 11
91.709829
 21
70.157898
 31
0.0
  0
ARC
  5
CA09
  8
ALPHA
 10
92.098342
 20
69.918344
 30
0.0
 40
0.1
 50
314.200498
 51
32.0
  0
ARC
  5
CA0A
  8
ALPHA
 10
95.165896
 20
66.763964
 30
0.0
 40
4.3
 50
134.200498
 51
135.799502
  0
ARC
  5
CA0B
  8
ALPHA
 10
91.815896
 20
69.263964
 30
0.0
 40
0.15
 50
135.0
 51
225.0
  0
ARC
  5
CA0C
  8
ALPHA
 10
91.974474
 20
68.763964
 30
0.0
 40
0.091421
 50
315.0
 51
45.0
  0
ARC
  5
CA0D
  8
ALPHA
 10
91.974474
 20
69.763964
 30
0.0
 40
0.091421
 50
315.0
 51
45.0
  0
LINE
  5
CA0E
  8
ALPHA
 10
91.860351
 20
70.487916
 30
0.0
 11
92.183146
 21
69.971335
 31
0.0
  0
ARC
  5
CA0F
  8
ALPHA
 10
91.815896
 20
70.263964
 30
0.0
 40
0.15
 50
135.0
 51
225.0
  0
ARC
  5
CA10
  8
ALPHA
 10
93.128076
 20
71.275038
 30
0.0
 40
0.2
 50
114.303478
 51
197.0
  0
ARC
  5
CA11
  8
ALPHA
 10
92.91294
 20
70.543407
 30
0.0
 40
0.1
 50
223.0
 51
300.799502
  0
ARC
  5
CA12
  8
ALPHA
 10
95.165896
 20
66.763964
 30
0.0
 40
5.15
 50
65.689807
 51
69.310198
  0
ARC
  5
CA13
  8
ALPHA
 10
95.165896
 20
66.763964
 30
0.0
 40
5.5
 50
65.380023
 51
114.619977
  0
LINE
  5
CA14
  8
ALPHA
 10
92.365896
 20
75.763964
 30
0.0
 11
92.365896
 21
76.413157
 31
0.0
  0
LINE
  5
CA15
  8
ALPHA
 10
97.965896
 20
75.763964
 30
0.0
 11
97.965896
 21
76.413157
 31
0.0
  0
LINE
  5
CA16
  8
ALPHA
 10
92.039119
 20
75.828608
 30
0.0
 11
91.709829
 21
76.157898
 31
0.0
  0
ARC
  5
CA17
  8
ALPHA
 10
95.165896
 20
74.863964
 30
0.0
 40
3.2
 50
20.364135
 51
159.635865
  0
ARC
  5
CA18
  8
ALPHA
 10
98.515896
 20
76.263964
 30
0.0
 40
0.15
 50
315.0
 51
45.0
  0
ARC
  5
CA19
  8
ALPHA
 10
98.515896
 20
77.263964
 30
0.0
 40
0.15
 50
315.0
 51
45.0
  0
ARC
  5
CA1A
  8
ALPHA
 10
98.515896
 20
78.263964
 30
0.0
 40
0.15
 50
315.0
 51
45.0
  0
ARC
  5
CA1B
  8
ALPHA
 10
98.515896
 20
79.263964
 30
0.0
 40
0.15
 50
315.0
 51
45.0
  0
ARC
  5
CA1C
  8
ALPHA
 10
98.389119
 20
72.263964
 30
0.0
 40
0.151777
 50
315.0
 51
45.0
  0
ARC
  5
CA1D
  8
ALPHA
 10
98.389119
 20
73.263964
 30
0.0
 40
0.151777
 50
315.0
 51
45.0
  0
ARC
  5
CA1E
  8
ALPHA
 10
98.389119
 20
74.263964
 30
0.0
 40
0.151777
 50
315.0
 51
45.0
  0
ARC
  5
CA1F
  8
ALPHA
 10
98.389119
 20
75.263964
 30
0.0
 40
0.151777
 50
315.0
 51
45.0
  0
ARC
  5
CA20
  8
ALPHA
 10
98.515896
 20
71.263964
 30
0.0
 40
0.15
 50
315.0
 51
45.0
  0
ARC
  5
CA21
  8
ALPHA
 10
98.515896
 20
72.263964
 30
0.0
 40
0.15
 50
315.0
 51
45.0
  0
ARC
  5
CA22
  8
ALPHA
 10
98.515896
 20
73.263964
 30
0.0
 40
0.15
 50
315.0
 51
45.0
  0
ARC
  5
CA23
  8
ALPHA
 10
98.515896
 20
74.263964
 30
0.0
 40
0.15
 50
315.0
 51
45.0
  0
ARC
  5
CA24
  8
ALPHA
 10
98.515896
 20
75.263964
 30
0.0
 40
0.15
 50
315.0
 51
45.0
  0
ARC
  5
CA25
  8
ALPHA
 10
98.515896
 20
69.263964
 30
0.0
 40
0.15
 50
315.0
 51
45.0
  0
ARC
  5
CA26
  8
ALPHA
 10
98.515896
 20
70.263964
 30
0.0
 40
0.15
 50
315.0
 51
45.0
  0
CIRCLE
  5
CA3F
  8
ALPHA
 10
95.165896
 20
105.263964
 30
0.0
 40
4.15
  0
CIRCLE
  5
CA40
  8
ALPHA
 10
95.165896
 20
105.263964
 30
0.0
 40
8.0
  0
CIRCLE
  5
CA41
  8
ALPHA
 10
95.165896
 20
105.263964
 30
0.0
 40
4.25
  0
LINE
  5
CA42
  8
ALPHA
 10
87.81447
 20
82.276074
 30
0.0
 11
89.89711
 21
99.266781
 31
0.0
  0
LINE
  5
CA43
  8
ALPHA
 10
100.434681
 20
99.266781
 30
0.0
 11
102.517321
 21
82.276074
 31
0.0
  0
LINE
  5
CA44
  8
ALPHA
 10
98.621962
 20
81.157898
 30
0.0
 11
98.292672
 21
80.828608
 31
0.0
  0
LINE
  5
CA45
  8
ALPHA
 10
98.292672
 20
80.699319
 30
0.0
 11
98.621962
 21
80.37003
 31
0.0
  0
LINE
  5
CA46
  8
ALPHA
 10
98.292672
 20
81.699319
 30
0.0
 11
98.621962
 21
81.37003
 31
0.0
  0
LINE
  5
CA47
  8
ALPHA
 10
98.621962
 20
82.157898
 30
0.0
 11
98.292672
 21
81.828608
 31
0.0
  0
ARC
  5
CA48
  8
ALPHA
 10
95.165896
 20
87.763964
 30
0.0
 40
3.5
 50
6.842628
 51
173.157372
  0
LINE
  5
CA49
  8
ALPHA
 10
98.621962
 20
88.157898
 30
0.0
 11
98.292672
 21
87.828608
 31
0.0
  0
LINE
  5
CA4A
  8
ALPHA
 10
98.621962
 20
87.157898
 30
0.0
 11
98.292672
 21
86.828608
 31
0.0
  0
LINE
  5
CA4B
  8
ALPHA
 10
98.621962
 20
86.157898
 30
0.0
 11
98.292672
 21
85.828608
 31
0.0
  0
LINE
  5
CA4C
  8
ALPHA
 10
98.621962
 20
85.157898
 30
0.0
 11
98.292672
 21
84.828608
 31
0.0
  0
LINE
  5
CA4D
  8
ALPHA
 10
98.621962
 20
84.157898
 30
0.0
 11
98.292672
 21
83.828608
 31
0.0
  0
LINE
  5
CA4E
  8
ALPHA
 10
98.621962
 20
83.157898
 30
0.0
 11
98.292672
 21
82.828608
 31
0.0
  0
LINE
  5
CA4F
  8
ALPHA
 10
98.292672
 20
82.699319
 30
0.0
 11
98.621962
 21
82.37003
 31
0.0
  0
LINE
  5
CA50
  8
ALPHA
 10
98.292672
 20
83.699319
 30
0.0
 11
98.621962
 21
83.37003
 31
0.0
  0
LINE
  5
CA51
  8
ALPHA
 10
98.292672
 20
84.699319
 30
0.0
 11
98.621962
 21
84.37003
 31
0.0
  0
LINE
  5
CA52
  8
ALPHA
 10
98.292672
 20
85.699319
 30
0.0
 11
98.621962
 21
85.37003
 31
0.0
  0
LINE
  5
CA53
  8
ALPHA
 10
98.292672
 20
86.699319
 30
0.0
 11
98.621962
 21
86.37003
 31
0.0
  0
LINE
  5
CA54
  8
ALPHA
 10
98.292672
 20
87.699319
 30
0.0
 11
98.621962
 21
87.37003
 31
0.0
  0
ARC
  5
CA55
  8
ALPHA
 10
98.357317
 20
86.763964
 30
0.0
 40
0.091421
 50
135.0
 51
225.0
  0
ARC
  5
CA56
  8
ALPHA
 10
98.357317
 20
85.763964
 30
0.0
 40
0.091421
 50
135.0
 51
225.0
  0
ARC
  5
CA57
  8
ALPHA
 10
98.357317
 20
84.763964
 30
0.0
 40
0.091421
 50
135.0
 51
225.0
  0
ARC
  5
CA58
  8
ALPHA
 10
98.357317
 20
83.763964
 30
0.0
 40
0.091421
 50
135.0
 51
225.0
  0
ARC
  5
CA59
  8
ALPHA
 10
98.357317
 20
82.763964
 30
0.0
 40
0.091421
 50
135.0
 51
225.0
  0
ARC
  5
CA5A
  8
ALPHA
 10
98.357317
 20
81.763964
 30
0.0
 40
0.091421
 50
135.0
 51
225.0
  0
ARC
  5
CA5B
  8
ALPHA
 10
98.357317
 20
80.763964
 30
0.0
 40
0.091421
 50
135.0
 51
225.0
  0
ARC
  5
CA5C
  8
ALPHA
 10
98.357317
 20
87.763964
 30
0.0
 40
0.091421
 50
135.0
 51
225.0
  0
LINE
  5
CA5D
  8
ALPHA
 10
92.039119
 20
87.828608
 30
0.0
 11
91.709829
 21
88.157898
 31
0.0
  0
ARC
  5
CA5E
  8
ALPHA
 10
91.815896
 20
88.263964
 30
0.0
 40
0.15
 50
213.607343
 51
225.0
  0
LINE
  5
CA5F
  8
ALPHA
 10
91.709829
 20
87.37003
 30
0.0
 11
92.039119
 21
87.699319
 31
0.0
  0
LINE
  5
CA60
  8
ALPHA
 10
91.709829
 20
86.37003
 30
0.0
 11
92.039119
 21
86.699319
 31
0.0
  0
LINE
  5
CA61
  8
ALPHA
 10
91.709829
 20
85.37003
 30
0.0
 11
92.039119
 21
85.699319
 31
0.0
  0
LINE
  5
CA62
  8
ALPHA
 10
91.709829
 20
84.37003
 30
0.0
 11
92.039119
 21
84.699319
 31
0.0
  0
LINE
  5
CA63
  8
ALPHA
 10
91.709829
 20
83.37003
 30
0.0
 11
92.039119
 21
83.699319
 31
0.0
  0
LINE
  5
CA64
  8
ALPHA
 10
91.709829
 20
82.37003
 30
0.0
 11
92.039119
 21
82.699319
 31
0.0
  0
LINE
  5
CA65
  8
ALPHA
 10
92.039119
 20
82.828608
 30
0.0
 11
91.709829
 21
83.157898
 31
0.0
  0
LINE
  5
CA66
  8
ALPHA
 10
92.039119
 20
83.828608
 30
0.0
 11
91.709829
 21
84.157898
 31
0.0
  0
LINE
  5
CA67
  8
ALPHA
 10
92.039119
 20
84.828608
 30
0.0
 11
91.709829
 21
85.157898
 31
0.0
  0
LINE
  5
CA68
  8
ALPHA
 10
92.039119
 20
85.828608
 30
0.0
 11
91.709829
 21
86.157898
 31
0.0
  0
LINE
  5
CA69
  8
ALPHA
 10
92.039119
 20
86.828608
 30
0.0
 11
91.709829
 21
87.157898
 31
0.0
  0
ARC
  5
CA6A
  8
ALPHA
 10
91.815896
 20
82.263964
 30
0.0
 40
0.15
 50
135.0
 51
225.0
  0
ARC
  5
CA6B
  8
ALPHA
 10
91.815896
 20
83.263964
 30
0.0
 40
0.15
 50
135.0
 51
225.0
  0
ARC
  5
CA6C
  8
ALPHA
 10
91.815896
 20
84.263964
 30
0.0
 40
0.15
 50
135.0
 51
225.0
  0
ARC
  5
CA6D
  8
ALPHA
 10
91.815896
 20
85.263964
 30
0.0
 40
0.15
 50
135.0
 51
225.0
  0
ARC
  5
CA6E
  8
ALPHA
 10
91.815896
 20
86.263964
 30
0.0
 40
0.15
 50
135.0
 51
225.0
  0
ARC
  5
CA6F
  8
ALPHA
 10
91.815896
 20
87.263964
 30
0.0
 40
0.15
 50
135.0
 51
225.0
  0
ARC
  5
CA70
  8
ALPHA
 10
91.974474
 20
82.763964
 30
0.0
 40
0.091421
 50
315.0
 51
45.0
  0
ARC
  5
CA71
  8
ALPHA
 10
91.974474
 20
83.763964
 30
0.0
 40
0.091421
 50
315.0
 51
45.0
  0
ARC
  5
CA72
  8
ALPHA
 10
91.974474
 20
84.763964
 30
0.0
 40
0.091421
 50
315.0
 51
45.0
  0
ARC
  5
CA73
  8
ALPHA
 10
91.974474
 20
85.763964
 30
0.0
 40
0.091421
 50
315.0
 51
45.0
  0
ARC
  5
CA74
  8
ALPHA
 10
91.974474
 20
86.763964
 30
0.0
 40
0.091421
 50
315.0
 51
45.0
  0
LINE
  5
CA75
  8
ALPHA
 10
91.709829
 20
81.37003
 30
0.0
 11
92.039119
 21
81.699319
 31
0.0
  0
LINE
  5
CA76
  8
ALPHA
 10
91.709829
 20
80.37003
 30
0.0
 11
92.039119
 21
80.699319
 31
0.0
  0
LINE
  5
CA77
  8
ALPHA
 10
92.039119
 20
80.828608
 30
0.0
 11
91.709829
 21
81.157898
 31
0.0
  0
ARC
  5
CA78
  8
ALPHA
 10
91.815896
 20
81.263964
 30
0.0
 40
0.15
 50
135.0
 51
225.0
  0
ARC
  5
CA79
  8
ALPHA
 10
91.974474
 20
80.763964
 30
0.0
 40
0.091421
 50
315.0
 51
45.0
  0
ARC
  5
CA7A
  8
ALPHA
 10
91.974474
 20
81.763964
 30
0.0
 40
0.091421
 50
315.0
 51
45.0
  0
LINE
  5
CA7B
  8
ALPHA
 10
92.039119
 20
81.828608
 30
0.0
 11
91.709829
 21
82.157898
 31
0.0
  0
ARC
  5
CA7C
  8
ALPHA
 10
91.974474
 20
87.763964
 30
0.0
 40
0.091421
 50
315.0
 51
45.0
  0
ARC
  5
CA7D
  8
ALPHA
 10
98.515896
 20
83.263964
 30
0.0
 40
0.15
 50
315.0
 51
45.0
  0
ARC
  5
CA7E
  8
ALPHA
 10
98.515896
 20
84.263964
 30
0.0
 40
0.15
 50
315.0
 51
45.0
  0
ARC
  5
CA7F
  8
ALPHA
 10
98.515896
 20
85.263964
 30
0.0
 40
0.15
 50
315.0
 51
45.0
  0
ARC
  5
CA80
  8
ALPHA
 10
98.515896
 20
86.263964
 30
0.0
 40
0.15
 50
315.0
 51
45.0
  0
ARC
  5
CA81
  8
ALPHA
 10
98.515896
 20
87.263964
 30
0.0
 40
0.15
 50
315.0
 51
45.0
  0
ARC
  5
CA82
  8
ALPHA
 10
98.515896
 20
81.263964
 30
0.0
 40
0.15
 50
315.0
 51
45.0
  0
ARC
  5
CA83
  8
ALPHA
 10
98.515896
 20
88.263964
 30
0.0
 40
0.15
 50
315.0
 51
326.392657
  0
ARC
  5
CA84
  8
ALPHA
 10
98.515896
 20
82.263964
 30
0.0
 40
0.15
 50
315.0
 51
45.0
  0
CIRCLE
  5
CA85
  8
ALPHA
 10
95.165896
 20
105.263964
 30
0.0
 40
1.0
  0
VIEWPORT
  5
494D
 67
     1
  8
0
 10
4.995325
 20
6.556512
 30
0.0
 40
22.70986
 41
13.988421
 68
    -1
 69
     1
1001
ACAD
1000
MVIEW
1002
{
1070
    16
1010
0.0
1020
0.0
1030
0.0
1010
0.0
1020
0.0
1030
1.0
1040
0.0
1040
13.988421
1040
4.995325
1040
6.556512
1040
50.0
1040
0.0
1040
0.0
1070
     0
1070
   100
1070
     1
1070
     1
1070
     0
1070
     0
1070
     0
1070
     0
1040
0.0
1040
0.0
1040
0.0
1040
10.0
1040
10.0
1040
10.0
1040
10.0
1070
     0
1002
{
1002
}
1002
}
  0
ENDSEC
  0
EOF
