  0
SECTION
  2
HEADER
  9
$ACADVER
  1
AC1009
  9
$INSBASE
 10
402.590624
 20
-1.041018
 30
0.0
  9
$EXTMIN
 10
-0.389807
 20
9.763964
 30
0.0
  9
$EXTMAX
 10
56.748598
 20
132.149221
 30
0.0
  9
$LIMMIN
 10
-407.970438
 20
-367.832444
  9
$LIMMAX
 10
429.804077
 20
234.370848
  9
$ORTHOMODE
 70
     0
  9
$REGENMODE
 70
     1
  9
$FILLMODE
 70
     1
  9
$QTEXTMODE
 70
     0
  9
$MIRRTEXT
 70
     1
  9
$DRAGMODE
 70
     2
  9
$LTSCALE
 40
10.0
  9
$OSMODE
 70
    35
  9
$ATTMODE
 70
     1
  9
$TEXTSIZE
 40
6.0
  9
$TRACEWID
 40
1.0
  9
$TEXTSTYLE
  7
ROMANS
  9
$CLAYER
  8
ALPHA
  9
$CELTYPE
  6
BYLAYER
  9
$CECOLOR
 62
   256
  9
$DIMSCALE
 40
1.0
  9
$DIMASZ
 40
5.0
  9
$DIMEXO
 40
2.0
  9
$DIMDLI
 40
0.38
  9
$DIMRND
 40
0.0
  9
$DIMDLE
 40
0.0
  9
$DIMEXE
 40
2.5
  9
$DIMTP
 40
0.0
  9
$DIMTM
 40
0.0
  9
$DIMTXT
 40
2.5
  9
$DIMCEN
 40
0.0
  9
$DIMTSZ
 40
0.0
  9
$DIMTOL
 70
     0
  9
$DIMLIM
 70
     0
  9
$DIMTIH
 70
     1
  9
$DIMTOH
 70
     1
  9
$DIMSE1
 70
     0
  9
$DIMSE2
 70
     0
  9
$DIMTAD
 70
     1
  9
$DIMZIN
 70
    12
  9
$DIMBLK
  1
OPEN30
  9
$DIMASO
 70
     1
  9
$DIMSHO
 70
     1
  9
$DIMPOST
  1

  9
$DIMAPOST
  1

  9
$DIMALT
 70
     0
  9
$DIMALTD
 70
     2
  9
$DIMALTF
 40
25.4
  9
$DIMLFAC
 40
1.0
  9
$DIMTOFL
 70
     0
  9
$DIMTVP
 40
0.0
  9
$DIMTIX
 70
     0
  9
$DIMSOXD
 70
     0
  9
$DIMSAH
 70
     0
  9
$DIMBLK1
  1

  9
$DIMBLK2
  1

  9
$DIMSTYLE
  2
SC_DEFAUT
  9
$DIMCLRD
 70
     0
  9
$DIMCLRE
 70
     0
  9
$DIMCLRT
 70
     0
  9
$DIMTFAC
 40
1.0
  9
$DIMGAP
 40
2.0
  9
$LUNITS
 70
     2
  9
$LUPREC
 70
     1
  9
$SKETCHINC
 40
0.1
  9
$FILLETRAD
 40
0.0
  9
$AUNITS
 70
     0
  9
$AUPREC
 70
     0
  9
$MENU
  1
acad
  9
$ELEVATION
 40
0.0
  9
$PELEVATION
 40
0.0
  9
$THICKNESS
 40
0.0
  9
$LIMCHECK
 70
     0
  9
$BLIPMODE
 70
     0
  9
$CHAMFERA
 40
0.0
  9
$CHAMFERB
 40
0.0
  9
$SKPOLY
 70
     0
  9
$TDCREATE
 40
2450373.687919
  9
$TDUPDATE
 40
2453032.653422
  9
$TDINDWG
 40
1.108641
  9
$TDUSRTIMER
 40
1.108641
  9
$USRTIMER
 70
     1
  9
$ANGBASE
 50
0.0
  9
$ANGDIR
 70
     0
  9
$PDMODE
 70
    32
  9
$PDSIZE
 40
0.0
  9
$PLINEWID
 40
0.0
  9
$COORDS
 70
     1
  9
$SPLFRAME
 70
     0
  9
$SPLINETYPE
 70
     6
  9
$SPLINESEGS
 70
     8
  9
$ATTDIA
 70
     0
  9
$ATTREQ
 70
     1
  9
$HANDLING
 70
     1
  9
$HANDSEED
  5
CF6D
  9
$SURFTAB1
 70
     6
  9
$SURFTAB2
 70
     6
  9
$SURFTYPE
 70
     6
  9
$SURFU
 70
     6
  9
$SURFV
 70
     6
  9
$UCSNAME
  2

  9
$UCSORG
 10
0.0
 20
0.0
 30
0.0
  9
$UCSXDIR
 10
1.0
 20
0.0
 30
0.0
  9
$UCSYDIR
 10
0.0
 20
1.0
 30
0.0
  9
$PUCSNAME
  2

  9
$PUCSORG
 10
0.0
 20
0.0
 30
0.0
  9
$PUCSXDIR
 10
1.0
 20
0.0
 30
0.0
  9
$PUCSYDIR
 10
0.0
 20
1.0
 30
0.0
  9
$USERI1
 70
     0
  9
$USERI2
 70
     0
  9
$USERI3
 70
     0
  9
$USERI4
 70
     0
  9
$USERI5
 70
     0
  9
$USERR1
 40
0.0
  9
$USERR2
 40
0.0
  9
$USERR3
 40
0.0
  9
$USERR4
 40
0.0
  9
$USERR5
 40
0.0
  9
$WORLDVIEW
 70
     1
  9
$SHADEDGE
 70
     3
  9
$SHADEDIF
 70
    70
  9
$TILEMODE
 70
     1
  9
$MAXACTVP
 70
    16
  9
$PLIMCHECK
 70
     0
  9
$PEXTMIN
 10
-1.452248
 20
-0.437698
 30
0.0
  9
$PEXTMAX
 10
12.749749
 20
8.310198
 30
0.0
  9
$PLIMMIN
 10
0.0
 20
0.0
  9
$PLIMMAX
 10
12.0
 20
9.0
  9
$UNITMODE
 70
     0
  9
$VISRETAIN
 70
     0
  9
$PLINEGEN
 70
     0
  9
$PSLTSCALE
 70
     0
  0
ENDSEC
  0
SECTION
  2
TABLES
  0
TABLE
  2
VPORT
 70
     2
  0
VPORT
  2
*ACTIVE
 70
     0
 10
0.0
 20
0.0
 11
1.0
 21
1.0
 12
28.206403
 22
70.941793
 13
0.0
 23
0.0
 14
1.0
 24
1.0
 15
10.0
 25
10.0
 16
0.0
 26
0.0
 36
1.0
 17
0.0
 27
0.0
 37
0.0
 40
123.323934
 41
1.466346
 42
50.0
 43
0.0
 44
0.0
 50
0.0
 51
0.0
 71
     0
 72
   100
 73
     1
 74
     0
 75
     0
 76
     0
 77
     0
 78
     0
  0
ENDTAB
  0
TABLE
  2
LTYPE
 70
     2
  0
LTYPE
  2
CONTINUOUS
 70
     0
  3
Solid line
 72
    65
 73
     0
 40
0.0
  0
LTYPE
  2
AXES2
 70
     0
  3
___ _ ___ _ ___ _ ___ _ ___ _ ___ _ ___ _ ___ _
 72
    65
 73
     4
 40
1.125
 49
0.75
 49
-0.125
 49
0.125
 49
-0.125
  0
ENDTAB
  0
TABLE
  2
LAYER
 70
     5
  0
LAYER
  2
0
 70
     0
 62
   255
  6
CONTINUOUS
  0
LAYER
  2
COTATION1
 70
     0
 62
     2
  6
CONTINUOUS
  0
LAYER
  2
AXE
 70
     0
 62
    80
  6
AXES2
  0
LAYER
  2
DEFPOINTS
 70
     0
 62
     7
  6
CONTINUOUS
  0
LAYER
  2
ALPHA
 70
     0
 62
   254
  6
CONTINUOUS
  0
ENDTAB
  0
TABLE
  2
STYLE
 70
     2
  0
STYLE
  2
ROMANS
 70
     0
 40
0.0
 41
1.0
 50
0.0
 71
     0
 42
6.0
  3
romans
  4

  0
STYLE
  2
STANDARD
 70
     0
 40
0.0
 41
1.0
 50
0.0
 71
     0
 42
0.2
  3
txt
  4

  0
ENDTAB
  0
TABLE
  2
VIEW
 70
     0
  0
ENDTAB
  0
TABLE
  2
UCS
 70
     0
  0
ENDTAB
  0
TABLE
  2
APPID
 70
     1
  0
APPID
  2
ACAD
 70
     0
  0
ENDTAB
  0
TABLE
  2
DIMSTYLE
 70
     2
  0
DIMSTYLE
  2
SC_DEFAUT
 70
     0
  3

  4

  5
OPEN30
  6

  7

 40
1.0
 41
5.0
 42
2.0
 43
0.38
 44
2.5
 45
0.0
 46
0.0
 47
0.0
 48
0.0
140
2.5
141
0.0
142
0.0
143
25.4
144
1.0
145
0.0
146
1.0
147
2.0
 71
     0
 72
     0
 73
     1
 74
     1
 75
     0
 76
     0
 77
     1
 78
    12
170
     0
171
     2
172
     0
173
     0
174
     0
175
     0
176
     0
177
     0
178
     0
  0
DIMSTYLE
  2
STANDARD
 70
     0
  3

  4

  5

  6

  7

 40
1.0
 41
0.18
 42
0.0625
 43
0.38
 44
0.18
 45
0.0
 46
0.0
 47
0.0
 48
0.0
140
0.18
141
0.09
142
0.0
143
25.4
144
1.0
145
0.0
146
1.0
147
0.09
 71
     0
 72
     0
 73
     1
 74
     1
 75
     0
 76
     0
 77
     0
 78
     0
170
     0
171
     2
172
     0
173
     0
174
     0
175
     0
176
     0
177
     0
178
     0
  0
ENDTAB
  0
ENDSEC
  0
SECTION
  2
BLOCKS
  0
BLOCK
  8
0
  2
$MODEL_SPACE
 70
     0
 10
0.0
 20
0.0
 30
0.0
  3
$MODEL_SPACE
  1

  0
ENDBLK
  5
CF66
  8
0
  0
BLOCK
 67
     1
  8
0
  2
$PAPER_SPACE
 70
     0
 10
0.0
 20
0.0
 30
0.0
  3
$PAPER_SPACE
  1

  0
ENDBLK
  5
CF64
 67
     1
  8
0
  0
BLOCK
  8
0
  2
COTE
 70
     0
 10
0.0
 20
0.0
 30
0.0
  3
COTE
  1

  0
ENDBLK
  5
F
  8
0
  0
BLOCK
  8
0
  2
FOND
 70
     0
 10
0.0
 20
0.0
 30
0.0
  3
FOND
  1

  0
ENDBLK
  5
75
  8
0
  0
BLOCK
  8
0
  2
_OPEN30
 70
     0
 10
0.0
 20
0.0
 30
0.0
  3
_OPEN30
  1

  0
LINE
  5
4B05
  8
COTATION1
 62
     0
 10
-1.0
 20
0.267949
 30
0.0
 11
0.0
 21
0.0
 31
0.0
1001
ACAD
1000
RTLwPs
1070
   158
  0
LINE
  5
4B06
  8
COTATION1
 62
     0
 10
0.0
 20
0.0
 30
0.0
 11
-1.0
 21
-0.267949
 31
0.0
1001
ACAD
1000
RTLwPs
1070
   158
  0
LINE
  5
4B07
  8
COTATION1
 62
     0
 10
0.0
 20
0.0
 30
0.0
 11
-1.0
 21
0.0
 31
0.0
1001
ACAD
1000
RTLwPs
1070
   158
  0
ENDBLK
  5
4B09
  8
0
  0
BLOCK
  8
0
  2
*D3
 70
     1
 10
0.0
 20
0.0
 30
0.0
  3
*D3
  1

  0
LINE
  5
CEAA
  8
COTATION1
 62
     0
 10
9.610193
 20
107.263964
 30
0.0
 11
9.610193
 21
130.763964
 31
0.0
1001
ACAD
1000
RTLwPs
1070
   158
  0
LINE
  5
CEAB
  8
COTATION1
 62
     0
 10
20.510193
 20
75.013964
 30
0.0
 11
20.510193
 21
130.763964
 31
0.0
1001
ACAD
1000
RTLwPs
1070
   158
  0
LINE
  5
CEAC
  8
COTATION1
 62
     0
 10
4.610193
 20
128.263964
 30
0.0
 11
-0.389807
 21
128.263964
 31
0.0
1001
ACAD
1000
RTLwPs
1070
   158
  0
LINE
  5
CEAD
  8
COTATION1
 62
     0
 10
25.510193
 20
128.263964
 30
0.0
 11
30.510193
 21
128.263964
 31
0.0
1001
ACAD
1000
RTLwPs
1070
   158
  0
TEXT
  5
CEAE
  8
COTATION1
 62
     0
 10
11.024479
 20
129.649221
 30
0.0
 40
2.5
  1
10.9
1001
ACAD
1000
MTEXTBEGIN
1070
    73
1070
     1
1070
    44
1040
1.0
1070
    74
1070
     0
1000
MTEXTEND
  0
INSERT
  5
CEAF
  8
COTATION1
 62
     0
  2
_OPEN30
 10
9.610193
 20
128.263964
 30
0.0
 41
5.0
 42
5.0
 43
5.0
1001
ACAD
1000
RTLwPs
1070
   158
  0
INSERT
  5
CEB0
  8
COTATION1
 62
     0
  2
_OPEN30
 10
20.510193
 20
128.263964
 30
0.0
 41
5.0
 42
5.0
 43
5.0
 50
180.0
1001
ACAD
1000
RTLwPs
1070
   158
  0
POINT
  5
CEB1
  8
DEFPOINTS
 62
     0
 10
9.610193
 20
105.263964
 30
0.0
  0
POINT
  5
CEB2
  8
DEFPOINTS
 62
     0
 10
20.510193
 20
73.013964
 30
0.0
  0
POINT
  5
CEB3
  8
DEFPOINTS
 62
     0
 10
20.510193
 20
128.263964
 30
0.0
  0
ENDBLK
  5
9B98
  8
0
  0
ENDSEC
  0
SECTION
  2
ENTITIES
  0
INSERT
  5
A
  8
0
  2
COTE
 10
0.0
 20
0.0
 30
0.0
  0
INSERT
  5
17
  8
0
  2
COTE
 10
284.010391
 20
6.373258
 30
0.0
  0
INSERT
  5
72
  8
0
  2
FOND
 10
0.0
 20
0.0
 30
0.0
  0
LINE
  5
9A33
  8
COTATION1
 10
23.010193
 20
50.413611
 30
0.0
 11
30.248598
 21
50.413611
 31
0.0
  0
LINE
  5
9A4A
  8
COTATION1
 10
20.510193
 20
58.513964
 30
0.0
 11
20.510193
 21
44.262336
 31
0.0
  0
SOLID
  5
9A78
  8
COTATION1
 10
20.510193
 20
48.970235
 30
0.0
 11
20.510193
 21
51.856987
 31
0.0
 12
23.010193
 22
50.413611
 32
0.0
 13
23.010193
 23
50.413611
 33
0.0
  0
LINE
  5
9B48
  8
COTATION1
 10
30.248598
 20
52.913611
 30
0.0
 11
56.748598
 21
52.913611
 31
0.0
  0
LINE
  5
9B49
  8
COTATION1
 10
56.748598
 20
47.913611
 30
0.0
 11
30.248598
 21
47.913611
 31
0.0
  0
TEXT
  5
9B4A
  8
COTATION1
 10
31.498598
 20
49.163611
 30
0.0
 40
2.5
  1
PLANE_TO_LINE_UP
 41
0.626087
  7
STANDARD
 72
     5
 11
55.498598
 21
49.163611
 31
0.0
  0
LINE
  5
9B4B
  8
COTATION1
 10
30.248598
 20
47.913611
 30
0.0
 11
30.248598
 21
52.913611
 31
0.0
  0
DIMENSION
  5
9B8C
  8
COTATION1
  2
*D3
 10
20.510193
 20
128.263964
 30
0.0
 11
15.310193
 21
130.899221
 31
0.0
 70
   128
 13
9.610193
 23
105.263964
 33
0.0
 14
20.510193
 24
73.013964
 34
0.0
  0
LINE
  5
A6B4
  8
AXE
 10
13.460193
 20
82.784783
 30
0.0
 11
13.460193
 21
118.263964
 31
0.0
  0
TEXT
  5
A6B5
  8
AXE
 10
8.412574
 20
82.784783
 30
0.0
 40
5.0
  1
Y
 72
     2
 11
12.460193
 21
82.784783
 31
0.0
  0
LINE
  5
A6B6
  8
AXE
 10
5.110193
 20
105.263964
 30
0.0
 11
30.010193
 21
105.263964
 31
0.0
  0
TEXT
  5
A6B7
  8
AXE
 10
25.962574
 20
106.263964
 30
0.0
 40
5.0
  1
Z
 72
     2
 11
30.010193
 21
106.263964
 31
0.0
  0
LINE
  5
C300
  8
COTATION1
 10
56.748598
 20
47.913611
 30
0.0
 11
56.748598
 21
52.913611
 31
0.0
  0
LINE
  5
CAD0
  8
ALPHA
 10
16.510193
 20
9.763964
 30
0.0
 11
16.510193
 21
109.763704
 31
0.0
  0
LINE
  5
CAD1
  8
ALPHA
 10
18.510193
 20
9.763964
 30
0.0
 11
18.510193
 21
109.763704
 31
0.0
  0
LINE
  5
CAD3
  8
ALPHA
 10
16.510193
 20
9.763964
 30
0.0
 11
18.510193
 21
9.763964
 31
0.0
  0
LINE
  5
CAD4
  8
ALPHA
 10
16.510193
 20
14.763964
 30
0.0
 11
18.510193
 21
14.763964
 31
0.0
  0
LINE
  5
CAD5
  8
ALPHA
 10
19.510193
 20
55.463964
 30
0.0
 11
19.510193
 21
78.063964
 31
0.0
  0
LINE
  5
CAD6
  8
ALPHA
 10
18.510193
 20
55.463964
 30
0.0
 11
19.510193
 21
55.463964
 31
0.0
  0
LINE
  5
CAD7
  8
ALPHA
 10
20.510193
 20
73.013964
 30
0.0
 11
20.510193
 21
60.513964
 31
0.0
  0
LINE
  5
CAD8
  8
ALPHA
 10
18.510193
 20
59.104103
 30
0.0
 11
19.510193
 21
59.104103
 31
0.0
  0
LINE
  5
CAD9
  8
ALPHA
 10
18.510193
 20
61.402061
 30
0.0
 11
19.510193
 21
61.402061
 31
0.0
  0
LINE
  5
CADA
  8
ALPHA
 10
19.510193
 20
60.513964
 30
0.0
 11
20.510193
 21
60.513964
 31
0.0
  0
LINE
  5
CADB
  8
ALPHA
 10
19.510193
 20
57.173223
 30
0.0
 11
18.510193
 21
57.173223
 31
0.0
  0
LINE
  5
CADC
  8
ALPHA
 10
19.510193
 20
76.354704
 30
0.0
 11
18.510193
 21
76.354704
 31
0.0
  0
LINE
  5
CADD
  8
ALPHA
 10
18.510193
 20
78.063964
 30
0.0
 11
19.510193
 21
78.063964
 31
0.0
  0
LINE
  5
CADE
  8
ALPHA
 10
18.510193
 20
79.842781
 30
0.0
 11
16.510193
 21
79.842781
 31
0.0
  0
LINE
  5
CADF
  8
ALPHA
 10
19.510193
 20
72.125866
 30
0.0
 11
18.510193
 21
72.125866
 31
0.0
  0
LINE
  5
CAE0
  8
ALPHA
 10
19.510193
 20
74.423824
 30
0.0
 11
18.510193
 21
74.423824
 31
0.0
  0
LINE
  5
CAE1
  8
ALPHA
 10
19.510193
 20
73.013964
 30
0.0
 11
20.510193
 21
73.013964
 31
0.0
  0
LINE
  5
CDEE
  8
ALPHA
 10
20.010193
 20
107.313964
 30
0.0
 11
20.010193
 21
103.213964
 31
0.0
  0
LINE
  5
CDEF
  8
ALPHA
 10
16.460193
 20
110.013964
 30
0.0
 11
16.460193
 21
100.513964
 31
0.0
  0
ARC
  5
CDF0
  8
ALPHA
 10
40.101239
 20
105.002948
 30
0.0
 40
30.5
 50
181.388355
 51
187.325595
  0
LINE
  5
CDF1
  8
ALPHA
 10
9.850193
 20
101.113964
 30
0.0
 11
9.850193
 21
109.413964
 31
0.0
  0
LINE
  5
CDF2
  8
ALPHA
 10
9.939876
 20
101.013964
 30
0.0
 11
9.939876
 21
109.513964
 31
0.0
  0
LINE
  5
CDF3
  8
ALPHA
 10
10.710193
 20
97.263964
 30
0.0
 11
10.710193
 21
113.263964
 31
0.0
  0
LINE
  5
CDF4
  8
ALPHA
 10
16.210193
 20
113.263964
 30
0.0
 11
16.210193
 21
97.263964
 31
0.0
  0
LINE
  5
CDF5
  8
ALPHA
 10
10.710193
 20
97.263964
 30
0.0
 11
16.210193
 21
97.263964
 31
0.0
  0
LINE
  5
CDF6
  8
ALPHA
 10
9.850193
 20
101.113964
 30
0.0
 11
9.939876
 21
101.113964
 31
0.0
  0
ARC
  5
CDF7
  8
ALPHA
 10
40.142318
 20
105.263964
 30
0.0
 40
30.5
 50
188.009903
 51
195.206288
  0
LINE
  5
CDF8
  8
ALPHA
 10
18.510193
 20
82.276074
 30
0.0
 11
16.510193
 21
82.276074
 31
0.0
  0
LINE
  5
CDF9
  8
ALPHA
 10
18.510193
 20
103.213964
 30
0.0
 11
20.010193
 21
103.213964
 31
0.0
  0
LINE
  5
CDFA
  8
ALPHA
 10
16.460193
 20
102.288964
 30
0.0
 11
16.510193
 21
102.288964
 31
0.0
  0
LINE
  5
CDFB
  8
ALPHA
 10
16.210193
 20
100.513964
 30
0.0
 11
16.460193
 21
100.513964
 31
0.0
  0
LINE
  5
CDFC
  8
ALPHA
 10
10.710193
 20
113.263964
 30
0.0
 11
16.210193
 21
113.263964
 31
0.0
  0
LINE
  5
CDFD
  8
ALPHA
 10
9.850193
 20
109.413964
 30
0.0
 11
9.939876
 21
109.413964
 31
0.0
  0
ARC
  5
CDFE
  8
ALPHA
 10
40.101239
 20
105.524979
 30
0.0
 40
30.5
 50
172.674405
 51
178.611645
  0
LINE
  5
CDFF
  8
ALPHA
 10
9.610193
 20
106.263964
 30
0.0
 11
9.610193
 21
104.263964
 31
0.0
  0
ARC
  5
CE00
  8
ALPHA
 10
40.142318
 20
105.263964
 30
0.0
 40
30.5
 50
164.793712
 51
171.990097
  0
LINE
  5
CE01
  8
ALPHA
 10
18.510193
 20
107.313964
 30
0.0
 11
20.010193
 21
107.313964
 31
0.0
  0
LINE
  5
CE02
  8
ALPHA
 10
16.460193
 20
108.238964
 30
0.0
 11
16.510193
 21
108.238964
 31
0.0
  0
LINE
  5
CE03
  8
ALPHA
 10
16.210193
 20
110.013964
 30
0.0
 11
16.460193
 21
110.013964
 31
0.0
  0
LINE
  5
CE04
  8
ALPHA
 10
16.510193
 20
105.811454
 30
0.0
 11
18.510193
 21
105.811454
 31
0.0
  0
LINE
  5
CE05
  8
ALPHA
 10
18.510193
 20
109.763964
 30
0.0
 11
16.510193
 21
109.763964
 31
0.0
  0
VIEWPORT
  5
494D
 67
     1
  8
0
 10
4.995325
 20
6.556512
 30
0.0
 40
22.70986
 41
13.988421
 68
    -1
 69
     1
1001
ACAD
1000
MVIEW
1002
{
1070
    16
1010
0.0
1020
0.0
1030
0.0
1010
0.0
1020
0.0
1030
1.0
1040
0.0
1040
13.988421
1040
4.995325
1040
6.556512
1040
50.0
1040
0.0
1040
0.0
1070
     0
1070
   100
1070
     1
1070
     1
1070
     0
1070
     0
1070
     0
1070
     0
1040
0.0
1040
0.0
1040
0.0
1040
10.0
1040
10.0
1040
10.0
1040
10.0
1070
     0
1002
{
1002
}
1002
}
  0
ENDSEC
  0
EOF
