  0
SECTION
  2
HEADER
  9
$ACADVER
  1
AC1009
  9
$INSBASE
 10
402.590624
 20
-1.041018
 30
0.0
  9
$EXTMIN
 10
-5.172906
 20
53.177385
 30
0.0
  9
$EXTMAX
 10
83.689185
 20
119.829938
 30
0.0
  9
$LIMMIN
 10
-407.970438
 20
-367.832444
  9
$LIMMAX
 10
429.804077
 20
234.370848
  9
$ORTHOMODE
 70
     1
  9
$REGENMODE
 70
     1
  9
$FILLMODE
 70
     1
  9
$QTEXTMODE
 70
     0
  9
$MIRRTEXT
 70
     1
  9
$DRAGMODE
 70
     2
  9
$LTSCALE
 40
10.0
  9
$OSMODE
 70
    39
  9
$ATTMODE
 70
     1
  9
$TEXTSIZE
 40
6.0
  9
$TRACEWID
 40
1.0
  9
$TEXTSTYLE
  7
ROMANS
  9
$CLAYER
  8
ALPHA
  9
$CELTYPE
  6
BYLAYER
  9
$CECOLOR
 62
   256
  9
$DIMSCALE
 40
1.0
  9
$DIMASZ
 40
5.0
  9
$DIMEXO
 40
2.0
  9
$DIMDLI
 40
0.38
  9
$DIMRND
 40
0.0
  9
$DIMDLE
 40
0.0
  9
$DIMEXE
 40
2.5
  9
$DIMTP
 40
0.0
  9
$DIMTM
 40
0.0
  9
$DIMTXT
 40
2.5
  9
$DIMCEN
 40
0.0
  9
$DIMTSZ
 40
0.0
  9
$DIMTOL
 70
     0
  9
$DIMLIM
 70
     0
  9
$DIMTIH
 70
     1
  9
$DIMTOH
 70
     1
  9
$DIMSE1
 70
     0
  9
$DIMSE2
 70
     0
  9
$DIMTAD
 70
     1
  9
$DIMZIN
 70
    12
  9
$DIMBLK
  1
OPEN30
  9
$DIMASO
 70
     1
  9
$DIMSHO
 70
     1
  9
$DIMPOST
  1

  9
$DIMAPOST
  1

  9
$DIMALT
 70
     0
  9
$DIMALTD
 70
     2
  9
$DIMALTF
 40
25.4
  9
$DIMLFAC
 40
1.0
  9
$DIMTOFL
 70
     0
  9
$DIMTVP
 40
0.0
  9
$DIMTIX
 70
     0
  9
$DIMSOXD
 70
     0
  9
$DIMSAH
 70
     0
  9
$DIMBLK1
  1

  9
$DIMBLK2
  1

  9
$DIMSTYLE
  2
SC_DEFAUT
  9
$DIMCLRD
 70
     0
  9
$DIMCLRE
 70
     0
  9
$DIMCLRT
 70
     0
  9
$DIMTFAC
 40
1.0
  9
$DIMGAP
 40
2.0
  9
$LUNITS
 70
     2
  9
$LUPREC
 70
     1
  9
$SKETCHINC
 40
0.1
  9
$FILLETRAD
 40
0.0
  9
$AUNITS
 70
     0
  9
$AUPREC
 70
     0
  9
$MENU
  1
acad
  9
$ELEVATION
 40
0.0
  9
$PELEVATION
 40
0.0
  9
$THICKNESS
 40
0.0
  9
$LIMCHECK
 70
     0
  9
$BLIPMODE
 70
     0
  9
$CHAMFERA
 40
0.0
  9
$CHAMFERB
 40
0.0
  9
$SKPOLY
 70
     0
  9
$TDCREATE
 40
2450373.687919
  9
$TDUPDATE
 40
2452996.495738
  9
$TDINDWG
 40
0.891596
  9
$TDUSRTIMER
 40
0.891596
  9
$USRTIMER
 70
     1
  9
$ANGBASE
 50
0.0
  9
$ANGDIR
 70
     0
  9
$PDMODE
 70
    32
  9
$PDSIZE
 40
0.0
  9
$PLINEWID
 40
0.0
  9
$COORDS
 70
     1
  9
$SPLFRAME
 70
     0
  9
$SPLINETYPE
 70
     6
  9
$SPLINESEGS
 70
     8
  9
$ATTDIA
 70
     0
  9
$ATTREQ
 70
     1
  9
$HANDLING
 70
     1
  9
$HANDSEED
  5
9424
  9
$SURFTAB1
 70
     6
  9
$SURFTAB2
 70
     6
  9
$SURFTYPE
 70
     6
  9
$SURFU
 70
     6
  9
$SURFV
 70
     6
  9
$UCSNAME
  2

  9
$UCSORG
 10
0.0
 20
0.0
 30
0.0
  9
$UCSXDIR
 10
1.0
 20
0.0
 30
0.0
  9
$UCSYDIR
 10
0.0
 20
1.0
 30
0.0
  9
$PUCSNAME
  2

  9
$PUCSORG
 10
0.0
 20
0.0
 30
0.0
  9
$PUCSXDIR
 10
1.0
 20
0.0
 30
0.0
  9
$PUCSYDIR
 10
0.0
 20
1.0
 30
0.0
  9
$USERI1
 70
     0
  9
$USERI2
 70
     0
  9
$USERI3
 70
     0
  9
$USERI4
 70
     0
  9
$USERI5
 70
     0
  9
$USERR1
 40
0.0
  9
$USERR2
 40
0.0
  9
$USERR3
 40
0.0
  9
$USERR4
 40
0.0
  9
$USERR5
 40
0.0
  9
$WORLDVIEW
 70
     1
  9
$SHADEDGE
 70
     3
  9
$SHADEDIF
 70
    70
  9
$TILEMODE
 70
     1
  9
$MAXACTVP
 70
    16
  9
$PLIMCHECK
 70
     0
  9
$PEXTMIN
 10
-1.452248
 20
-0.437698
 30
0.0
  9
$PEXTMAX
 10
12.749749
 20
8.310198
 30
0.0
  9
$PLIMMIN
 10
0.0
 20
0.0
  9
$PLIMMAX
 10
12.0
 20
9.0
  9
$UNITMODE
 70
     0
  9
$VISRETAIN
 70
     0
  9
$PLINEGEN
 70
     0
  9
$PSLTSCALE
 70
     0
  0
ENDSEC
  0
SECTION
  2
TABLES
  0
TABLE
  2
VPORT
 70
     2
  0
VPORT
  2
*ACTIVE
 70
     0
 10
0.0
 20
0.0
 11
1.0
 21
1.0
 12
39.264066
 22
86.493994
 13
0.0
 23
0.0
 14
1.0
 24
1.0
 15
10.0
 25
10.0
 16
0.0
 26
0.0
 36
1.0
 17
0.0
 27
0.0
 37
0.0
 40
67.191877
 41
1.466346
 42
50.0
 43
0.0
 44
0.0
 50
0.0
 51
0.0
 71
     0
 72
   100
 73
     1
 74
     0
 75
     0
 76
     0
 77
     0
 78
     0
  0
ENDTAB
  0
TABLE
  2
LTYPE
 70
     2
  0
LTYPE
  2
CONTINUOUS
 70
     0
  3
Solid line
 72
    65
 73
     0
 40
0.0
  0
LTYPE
  2
AXES2
 70
     0
  3
___ _ ___ _ ___ _ ___ _ ___ _ ___ _ ___ _ ___ _
 72
    65
 73
     4
 40
1.125
 49
0.75
 49
-0.125
 49
0.125
 49
-0.125
  0
ENDTAB
  0
TABLE
  2
LAYER
 70
     5
  0
LAYER
  2
0
 70
     0
 62
   255
  6
CONTINUOUS
  0
LAYER
  2
COTATION1
 70
     0
 62
     2
  6
CONTINUOUS
  0
LAYER
  2
AXE
 70
     0
 62
    80
  6
AXES2
  0
LAYER
  2
DEFPOINTS
 70
     0
 62
     7
  6
CONTINUOUS
  0
LAYER
  2
ALPHA
 70
     0
 62
   254
  6
CONTINUOUS
  0
ENDTAB
  0
TABLE
  2
STYLE
 70
     2
  0
STYLE
  2
ROMANS
 70
     0
 40
0.0
 41
1.0
 50
0.0
 71
     0
 42
6.0
  3
romans
  4

  0
STYLE
  2
STANDARD
 70
     0
 40
0.0
 41
1.0
 50
0.0
 71
     0
 42
0.2
  3
txt
  4

  0
ENDTAB
  0
TABLE
  2
VIEW
 70
     0
  0
ENDTAB
  0
TABLE
  2
UCS
 70
     0
  0
ENDTAB
  0
TABLE
  2
APPID
 70
     1
  0
APPID
  2
ACAD
 70
     0
  0
ENDTAB
  0
TABLE
  2
DIMSTYLE
 70
     2
  0
DIMSTYLE
  2
SC_DEFAUT
 70
     0
  3

  4

  5
OPEN30
  6

  7

 40
1.0
 41
5.0
 42
2.0
 43
0.38
 44
2.5
 45
0.0
 46
0.0
 47
0.0
 48
0.0
140
2.5
141
0.0
142
0.0
143
25.4
144
1.0
145
0.0
146
1.0
147
2.0
 71
     0
 72
     0
 73
     1
 74
     1
 75
     0
 76
     0
 77
     1
 78
    12
170
     0
171
     2
172
     0
173
     0
174
     0
175
     0
176
     0
177
     0
178
     0
  0
DIMSTYLE
  2
STANDARD
 70
     0
  3

  4

  5

  6

  7

 40
1.0
 41
0.18
 42
0.0625
 43
0.38
 44
0.18
 45
0.0
 46
0.0
 47
0.0
 48
0.0
140
0.18
141
0.09
142
0.0
143
25.4
144
1.0
145
0.0
146
1.0
147
0.09
 71
     0
 72
     0
 73
     1
 74
     1
 75
     0
 76
     0
 77
     0
 78
     0
170
     0
171
     2
172
     0
173
     0
174
     0
175
     0
176
     0
177
     0
178
     0
  0
ENDTAB
  0
ENDSEC
  0
SECTION
  2
BLOCKS
  0
BLOCK
  8
0
  2
$MODEL_SPACE
 70
     0
 10
0.0
 20
0.0
 30
0.0
  3
$MODEL_SPACE
  1

  0
ENDBLK
  5
9415
  8
0
  0
BLOCK
 67
     1
  8
0
  2
$PAPER_SPACE
 70
     0
 10
0.0
 20
0.0
 30
0.0
  3
$PAPER_SPACE
  1

  0
ENDBLK
  5
9413
 67
     1
  8
0
  0
BLOCK
  8
0
  2
COTE
 70
     0
 10
0.0
 20
0.0
 30
0.0
  3
COTE
  1

  0
ENDBLK
  5
F
  8
0
  0
BLOCK
  8
0
  2
FOND
 70
     0
 10
0.0
 20
0.0
 30
0.0
  3
FOND
  1

  0
ENDBLK
  5
75
  8
0
  0
BLOCK
  8
0
  2
_OPEN30
 70
     0
 10
0.0
 20
0.0
 30
0.0
  3
_OPEN30
  1

  0
LINE
  5
4B05
  8
COTATION1
 62
     0
 10
-1.0
 20
0.267949
 30
0.0
 11
0.0
 21
0.0
 31
0.0
1001
ACAD
1000
RTLwPs
1070
   158
  0
LINE
  5
4B06
  8
COTATION1
 62
     0
 10
0.0
 20
0.0
 30
0.0
 11
-1.0
 21
-0.267949
 31
0.0
1001
ACAD
1000
RTLwPs
1070
   158
  0
LINE
  5
4B07
  8
COTATION1
 62
     0
 10
0.0
 20
0.0
 30
0.0
 11
-1.0
 21
0.0
 31
0.0
1001
ACAD
1000
RTLwPs
1070
   158
  0
ENDBLK
  5
4B09
  8
0
  0
BLOCK
  8
0
  2
*D3
 70
     1
 10
0.0
 20
0.0
 30
0.0
  3
*D3
  1

  0
LINE
  5
921E
  8
COTATION1
 62
     0
 10
43.879661
 20
81.977385
 30
0.0
 11
43.879661
 21
53.177385
 31
0.0
1001
ACAD
1000
RTLwPs
1070
   158
  0
LINE
  5
921F
  8
COTATION1
 62
     0
 10
59.879661
 20
81.977385
 30
0.0
 11
59.879661
 21
53.177385
 31
0.0
1001
ACAD
1000
RTLwPs
1070
   158
  0
LINE
  5
9220
  8
COTATION1
 62
     0
 10
48.879661
 20
55.677385
 30
0.0
 11
54.879661
 21
55.677385
 31
0.0
1001
ACAD
1000
RTLwPs
1070
   158
  0
INSERT
  5
9221
  8
COTATION1
 62
     0
  2
_OPEN30
 10
43.879661
 20
55.677385
 30
0.0
 41
5.0
 42
5.0
 43
5.0
 50
180.0
1001
ACAD
1000
RTLwPs
1070
   158
  0
INSERT
  5
9222
  8
COTATION1
 62
     0
  2
_OPEN30
 10
59.879661
 20
55.677385
 30
0.0
 41
5.0
 42
5.0
 43
5.0
1001
ACAD
1000
RTLwPs
1070
   158
  0
TEXT
  5
9223
  8
COTATION1
 62
     0
 10
49.320137
 20
57.677385
 30
0.0
 40
2.5
  1
16
1001
ACAD
1000
MTEXTBEGIN
1070
    73
1070
     1
1070
    44
1040
1.0
1070
    74
1070
     0
1000
MTEXTEND
  0
POINT
  5
9224
  8
DEFPOINTS
 62
     0
 10
43.879661
 20
83.977385
 30
0.0
  0
POINT
  5
9225
  8
DEFPOINTS
 62
     0
 10
59.879661
 20
83.977385
 30
0.0
  0
POINT
  5
9226
  8
DEFPOINTS
 62
     0
 10
59.879661
 20
55.677385
 30
0.0
  0
ENDBLK
  5
7F3E
  8
0
  0
BLOCK
  8
0
  2
*D4
 70
     1
 10
0.0
 20
0.0
 30
0.0
  3
*D4
  1

  0
LINE
  5
923B
  8
COTATION1
 62
     0
 10
47.129661
 20
114.829938
 30
0.0
 11
28.237846
 21
114.829938
 31
0.0
1001
ACAD
1000
RTLwPs
1070
   158
  0
LINE
  5
923C
  8
COTATION1
 62
     0
 10
41.879661
 20
83.977385
 30
0.0
 11
28.237846
 21
83.977385
 31
0.0
1001
ACAD
1000
RTLwPs
1070
   158
  0
LINE
  5
923D
  8
COTATION1
 62
     0
 10
30.737846
 20
109.829938
 30
0.0
 11
30.737846
 21
102.653661
 31
0.0
1001
ACAD
1000
RTLwPs
1070
   158
  0
LINE
  5
923E
  8
COTATION1
 62
     0
 10
30.737846
 20
88.977385
 30
0.0
 11
30.737846
 21
96.153661
 31
0.0
1001
ACAD
1000
RTLwPs
1070
   158
  0
INSERT
  5
923F
  8
COTATION1
 62
     0
  2
_OPEN30
 10
30.737846
 20
114.829938
 30
0.0
 41
5.0
 42
5.0
 43
5.0
 50
90.0
1001
ACAD
1000
RTLwPs
1070
   158
  0
INSERT
  5
9240
  8
COTATION1
 62
     0
  2
_OPEN30
 10
30.737846
 20
83.977385
 30
0.0
 41
5.0
 42
5.0
 43
5.0
 50
270.0
1001
ACAD
1000
RTLwPs
1070
   158
  0
TEXT
  5
9241
  8
COTATION1
 62
     0
 10
26.630703
 20
98.153661
 30
0.0
 40
2.5
  1
30.9
1001
ACAD
1000
MTEXTBEGIN
1070
    73
1070
     1
1070
    44
1040
1.0
1070
    74
1070
     0
1000
MTEXTEND
  0
POINT
  5
9242
  8
DEFPOINTS
 62
     0
 10
49.129661
 20
114.829938
 30
0.0
  0
POINT
  5
9243
  8
DEFPOINTS
 62
     0
 10
43.879661
 20
83.977385
 30
0.0
  0
POINT
  5
9244
  8
DEFPOINTS
 62
     0
 10
30.737846
 20
83.977385
 30
0.0
  0
ENDBLK
  5
7F4B
  8
0
  0
BLOCK
  8
0
  2
*D5
 70
     1
 10
0.0
 20
0.0
 30
0.0
  3
*D5
  1

  0
LINE
  5
9277
  8
COTATION1
 62
     0
 10
56.629661
 20
114.829938
 30
0.0
 11
82.379661
 21
114.829938
 31
0.0
1001
ACAD
1000
RTLwPs
1070
   158
  0
LINE
  5
9278
  8
COTATION1
 62
     0
 10
59.729661
 20
75.677385
 30
0.0
 11
82.379661
 21
75.677385
 31
0.0
1001
ACAD
1000
RTLwPs
1070
   158
  0
LINE
  5
9279
  8
COTATION1
 62
     0
 10
79.879661
 20
109.829938
 30
0.0
 11
79.879661
 21
98.503661
 31
0.0
1001
ACAD
1000
RTLwPs
1070
   158
  0
LINE
  5
927A
  8
COTATION1
 62
     0
 10
79.879661
 20
80.677385
 30
0.0
 11
79.879661
 21
92.003661
 31
0.0
1001
ACAD
1000
RTLwPs
1070
   158
  0
TEXT
  5
927B
  8
COTATION1
 62
     0
 10
75.712994
 20
94.003661
 30
0.0
 40
2.5
  1
39.2
1001
ACAD
1000
MTEXTBEGIN
1070
    73
1070
     1
1070
    44
1040
1.0
1070
    74
1070
     0
1000
MTEXTEND
  0
INSERT
  5
927C
  8
COTATION1
 62
     0
  2
_OPEN30
 10
79.879661
 20
114.829938
 30
0.0
 41
5.0
 42
5.0
 43
5.0
 50
90.0
1001
ACAD
1000
RTLwPs
1070
   158
  0
INSERT
  5
927D
  8
COTATION1
 62
     0
  2
_OPEN30
 10
79.879661
 20
75.677385
 30
0.0
 41
5.0
 42
5.0
 43
5.0
 50
270.0
1001
ACAD
1000
RTLwPs
1070
   158
  0
POINT
  5
927E
  8
DEFPOINTS
 62
     0
 10
54.629661
 20
114.829938
 30
0.0
  0
POINT
  5
927F
  8
DEFPOINTS
 62
     0
 10
57.729661
 20
75.677385
 30
0.0
  0
POINT
  5
9280
  8
DEFPOINTS
 62
     0
 10
79.879661
 20
75.677385
 30
0.0
  0
ENDBLK
  5
8EB4
  8
0
  0
ENDSEC
  0
SECTION
  2
ENTITIES
  0
INSERT
  5
A
  8
0
  2
COTE
 10
0.0
 20
0.0
 30
0.0
  0
INSERT
  5
17
  8
0
  2
COTE
 10
284.010391
 20
6.373258
 30
0.0
  0
INSERT
  5
72
  8
0
  2
FOND
 10
0.0
 20
0.0
 30
0.0
  0
DIMENSION
  5
7F30
  8
COTATION1
  2
*D3
 10
59.879661
 20
55.677385
 30
0.0
 11
51.879661
 21
58.927385
 31
0.0
 13
43.879661
 23
83.977385
 33
0.0
 14
59.879661
 24
83.977385
 34
0.0
  0
DIMENSION
  5
7F31
  8
COTATION1
  2
*D4
 10
30.737846
 20
83.977385
 30
0.0
 11
30.737846
 21
99.403661
 31
0.0
 13
49.129661
 23
114.829938
 33
0.0
 14
43.879661
 24
83.977385
 34
0.0
 50
90.0
  0
LINE
  5
8AD3
  8
AXE
 10
51.879661
 20
65.677385
 30
0.0
 11
51.879661
 21
119.829938
 31
0.0
  0
TEXT
  5
8AD4
  8
AXE
 10
46.832042
 20
65.677385
 30
0.0
 40
5.0
  1
Y
 72
     2
 11
50.879661
 21
65.677385
 31
0.0
  0
LINE
  5
8AD5
  8
AXE
 10
38.879661
 20
82.922385
 30
0.0
 11
69.879661
 21
82.922385
 31
0.0
  0
TEXT
  5
8AD6
  8
AXE
 10
65.832042
 20
83.922385
 30
0.0
 40
5.0
  1
X
 72
     2
 11
69.879661
 21
83.922385
 31
0.0
  0
LINE
  5
8B73
  8
COTATION1
 10
8.077094
 20
86.477385
 30
0.0
 11
8.077094
 21
111.436307
 31
0.0
  0
LINE
  5
8B74
  8
COTATION1
 10
-0.023259
 20
83.977385
 30
0.0
 11
42.879661
 21
83.977385
 31
0.0
  0
SOLID
  5
8B75
  8
COTATION1
 10
9.520469
 20
83.977385
 30
0.0
 11
6.633718
 21
83.977385
 31
0.0
 12
8.077094
 22
86.477385
 32
0.0
 13
8.077094
 23
86.477385
 33
0.0
  0
LINE
  5
8B76
  8
COTATION1
 10
-5.172906
 20
116.436307
 30
0.0
 11
21.327094
 21
116.436307
 31
0.0
  0
LINE
  5
8B77
  8
COTATION1
 10
21.327094
 20
111.436307
 30
0.0
 11
-5.172906
 21
111.436307
 31
0.0
  0
TEXT
  5
8B78
  8
COTATION1
 10
-3.922906
 20
112.686307
 30
0.0
 40
2.5
  1
PLANE_TO_LINE_UP
 41
0.626087
  7
STANDARD
 72
     5
 11
20.077094
 21
112.686307
 31
0.0
  0
LINE
  5
8B79
  8
COTATION1
 10
21.327094
 20
116.436307
 30
0.0
 11
21.327094
 21
111.436307
 31
0.0
  0
LINE
  5
8B7A
  8
COTATION1
 10
-5.172906
 20
111.436307
 30
0.0
 11
-5.172906
 21
116.436307
 31
0.0
  0
DIMENSION
  5
8EA7
  8
COTATION1
  2
*D5
 10
79.879661
 20
75.677385
 30
0.0
 11
79.879661
 21
95.253661
 31
0.0
 70
   128
 13
54.629661
 23
114.829938
 33
0.0
 14
57.729661
 24
75.677385
 34
0.0
 50
90.0
  0
LINE
  5
90F4
  8
ALPHA
 10
59.879661
 20
97.277385
 30
0.0
 11
59.879661
 21
83.977385
 31
0.0
  0
LINE
  5
90F5
  8
ALPHA
 10
59.379661
 20
97.777385
 30
0.0
 11
59.379661
 21
85.645264
 31
0.0
  0
LINE
  5
90F6
  8
ALPHA
 10
55.879661
 20
83.977385
 30
0.0
 11
55.879661
 21
97.777385
 31
0.0
  0
LINE
  5
90F7
  8
ALPHA
 10
55.629661
 20
97.879585
 30
0.0
 11
55.629661
 21
88.177441
 31
0.0
  0
LINE
  5
90F8
  8
ALPHA
 10
48.129661
 20
97.879585
 30
0.0
 11
48.129661
 21
88.177441
 31
0.0
  0
LINE
  5
90F9
  8
ALPHA
 10
47.879661
 20
83.977385
 30
0.0
 11
47.879661
 21
97.777385
 31
0.0
  0
LINE
  5
90FA
  8
ALPHA
 10
44.379661
 20
85.645264
 30
0.0
 11
44.379661
 21
97.777385
 31
0.0
  0
LINE
  5
90FB
  8
ALPHA
 10
43.879661
 20
83.977385
 30
0.0
 11
43.879661
 21
97.277385
 31
0.0
  0
LINE
  5
90FF
  8
ALPHA
 10
55.879661
 20
85.645264
 30
0.0
 11
59.379661
 21
85.645264
 31
0.0
  0
LINE
  5
9100
  8
ALPHA
 10
55.879661
 20
85.213963
 30
0.0
 11
59.62672
 21
85.213963
 31
0.0
  0
LINE
  5
9101
  8
ALPHA
 10
43.879661
 20
83.977385
 30
0.0
 11
59.879661
 21
83.977385
 31
0.0
  0
LINE
  5
9102
  8
ALPHA
 10
44.528867
 20
81.867385
 30
0.0
 11
59.230455
 21
81.867385
 31
0.0
  0
LINE
  5
9103
  8
ALPHA
 10
58.229661
 20
80.527385
 30
0.0
 11
45.529661
 21
80.527385
 31
0.0
  0
LINE
  5
9104
  8
ALPHA
 10
58.229661
 20
79.377385
 30
0.0
 11
45.529661
 21
79.377385
 31
0.0
  0
LINE
  5
9105
  8
ALPHA
 10
57.879661
 20
79.277385
 30
0.0
 11
45.879661
 21
79.277385
 31
0.0
  0
LINE
  5
9106
  8
ALPHA
 10
57.879661
 20
78.277385
 30
0.0
 11
45.879661
 21
78.277385
 31
0.0
  0
LINE
  5
9107
  8
ALPHA
 10
58.229661
 20
78.177385
 30
0.0
 11
45.529661
 21
78.177385
 31
0.0
  0
LINE
  5
9108
  8
ALPHA
 10
45.529661
 20
76.177385
 30
0.0
 11
58.229661
 21
76.177385
 31
0.0
  0
LINE
  5
9109
  8
ALPHA
 10
57.729661
 20
75.677385
 30
0.0
 11
46.029661
 21
75.677385
 31
0.0
  0
LINE
  5
910A
  8
ALPHA
 10
48.129661
 20
90.265742
 30
0.0
 11
48.879661
 21
90.265742
 31
0.0
  0
LINE
  5
910B
  8
ALPHA
 10
48.129661
 20
88.177385
 30
0.0
 11
48.879661
 21
88.177385
 31
0.0
  0
LINE
  5
910C
  8
ALPHA
 10
48.379661
 20
87.877385
 30
0.0
 11
48.879661
 21
87.877385
 31
0.0
  0
LINE
  5
910D
  8
ALPHA
 10
47.879661
 20
87.377385
 30
0.0
 11
48.879661
 21
87.377385
 31
0.0
  0
LINE
  5
910E
  8
ALPHA
 10
45.529661
 20
80.527385
 30
0.0
 11
45.529661
 21
79.377385
 31
0.0
  0
ARC
  5
910F
  8
ALPHA
 10
45.979661
 20
78.477385
 30
0.0
 40
0.3
 50
270.000026
 51
317.581999
  0
ARC
  5
9110
  8
ALPHA
 10
46.029661
 20
76.177385
 30
0.0
 40
0.5
 50
180.0
 51
270.0
  0
ARC
  5
9111
  8
ALPHA
 10
45.879661
 20
78.777385
 30
0.0
 40
0.5
 50
90.0
 51
270.0
  0
LINE
  5
9112
  8
ALPHA
 10
46.279661
 20
79.377385
 30
0.0
 11
46.279661
 21
79.277385
 31
0.0
  0
LINE
  5
9113
  8
ALPHA
 10
45.529661
 20
78.177385
 30
0.0
 11
45.529661
 21
76.177385
 31
0.0
  0
LINE
  5
9114
  8
ALPHA
 10
44.379661
 20
85.645264
 30
0.0
 11
47.879661
 21
85.645264
 31
0.0
  0
LINE
  5
9115
  8
ALPHA
 10
44.132602
 20
85.213963
 30
0.0
 11
47.879661
 21
85.213963
 31
0.0
  0
LINE
  5
9116
  8
ALPHA
 10
44.132602
 20
85.213963
 30
0.0
 11
43.879661
 21
85.071059
 31
0.0
  0
POLYLINE
  5
9117
  8
ALPHA
 66
     1
 10
0.0
 20
0.0
 30
0.0
 70
   128
210
0.0
220
0.0
230
-1.0
  0
VERTEX
  5
941B
  8
ALPHA
 10
-44.379661
 20
85.645264
 30
0.0
  0
VERTEX
  5
941C
  8
ALPHA
 10
-44.313533
 20
85.396732
 30
0.0
  0
VERTEX
  5
941D
  8
ALPHA
 10
-44.132602
 20
85.213963
 30
0.0
  0
SEQEND
  5
941E
  8
ALPHA
  0
LINE
  5
9118
  8
ALPHA
 10
48.379661
 20
83.977385
 30
0.0
 11
48.379661
 21
87.877385
 31
0.0
  0
LINE
  5
9119
  8
ALPHA
 10
46.379661
 20
81.867385
 30
0.0
 11
46.379661
 21
80.527385
 31
0.0
  0
LINE
  5
911A
  8
ALPHA
 10
45.981116
 20
83.977385
 30
0.0
 11
45.981116
 21
81.867385
 31
0.0
  0
LINE
  5
911B
  8
ALPHA
 10
45.813764
 20
83.977385
 30
0.0
 11
45.813764
 21
81.867385
 31
0.0
  0
LINE
  5
911C
  8
ALPHA
 10
45.258409
 20
81.867385
 30
0.0
 11
45.258409
 21
83.977385
 31
0.0
  0
LINE
  5
911D
  8
ALPHA
 10
45.083452
 20
81.867385
 30
0.0
 11
45.083452
 21
83.977385
 31
0.0
  0
LINE
  5
911E
  8
ALPHA
 10
45.003805
 20
81.867385
 30
0.0
 11
45.003805
 21
83.977385
 31
0.0
  0
LINE
  5
911F
  8
ALPHA
 10
44.989639
 20
81.867385
 30
0.0
 11
44.989639
 21
83.977385
 31
0.0
  0
LINE
  5
9120
  8
ALPHA
 10
44.695039
 20
81.867385
 30
0.0
 11
44.695039
 21
83.977385
 31
0.0
  0
LINE
  5
9121
  8
ALPHA
 10
44.557278
 20
81.867385
 30
0.0
 11
44.557278
 21
83.977385
 31
0.0
  0
LINE
  5
9122
  8
ALPHA
 10
44.530112
 20
81.867385
 30
0.0
 11
44.530112
 21
83.977385
 31
0.0
  0
LINE
  5
9123
  8
ALPHA
 10
44.528748
 20
81.867385
 30
0.0
 11
44.528748
 21
83.977385
 31
0.0
  0
ARC
  5
9124
  8
ALPHA
 10
48.379661
 20
88.377385
 30
0.0
 40
0.5
 50
180.0
 51
270.0
  0
LINE
  5
9125
  8
ALPHA
 10
48.379661
 20
87.877385
 30
0.0
 11
48.379661
 21
88.177385
 31
0.0
  0
LINE
  5
9126
  8
ALPHA
 10
48.129661
 20
90.502385
 30
0.0
 11
47.879661
 21
90.502385
 31
0.0
  0
LINE
  5
9127
  8
ALPHA
 10
48.879661
 20
84.980543
 30
0.0
 11
54.879661
 21
84.980543
 31
0.0
  0
LINE
  5
9128
  8
ALPHA
 10
48.879661
 20
84.967306
 30
0.0
 11
54.879661
 21
84.967306
 31
0.0
  0
LINE
  5
9129
  8
ALPHA
 10
48.879661
 20
90.265742
 30
0.0
 11
48.879661
 21
84.967306
 31
0.0
  0
LINE
  5
912A
  8
ALPHA
 10
55.379661
 20
87.877385
 30
0.0
 11
55.379661
 21
83.977385
 31
0.0
  0
LINE
  5
912B
  8
ALPHA
 10
54.879661
 20
90.265742
 30
0.0
 11
54.879661
 21
84.967306
 31
0.0
  0
ARC
  5
912C
  8
ALPHA
 10
55.379661
 20
88.377385
 30
0.0
 40
0.5
 50
270.0
 51
0.0
  0
LINE
  5
912D
  8
ALPHA
 10
55.879661
 20
90.733325
 30
0.0
 11
55.629661
 21
90.588988
 31
0.0
  0
LINE
  5
912E
  8
ALPHA
 10
55.379661
 20
87.877385
 30
0.0
 11
55.379661
 21
88.177385
 31
0.0
  0
LINE
  5
912F
  8
ALPHA
 10
54.879661
 20
90.265742
 30
0.0
 11
55.629661
 21
90.265742
 31
0.0
  0
LINE
  5
9130
  8
ALPHA
 10
54.879661
 20
88.177385
 30
0.0
 11
55.629661
 21
88.177385
 31
0.0
  0
LINE
  5
9131
  8
ALPHA
 10
54.879661
 20
87.877385
 30
0.0
 11
55.379661
 21
87.877385
 31
0.0
  0
LINE
  5
9132
  8
ALPHA
 10
54.879661
 20
87.377385
 30
0.0
 11
55.879661
 21
87.377385
 31
0.0
  0
LINE
  5
9133
  8
ALPHA
 10
58.229661
 20
80.527385
 30
0.0
 11
58.229661
 21
79.377385
 31
0.0
  0
ARC
  5
9134
  8
ALPHA
 10
57.779661
 20
78.477385
 30
0.0
 40
0.3
 50
222.418001
 51
269.999974
  0
ARC
  5
9135
  8
ALPHA
 10
57.729661
 20
76.177385
 30
0.0
 40
0.5
 50
270.0
 51
0.0
  0
ARC
  5
9136
  8
ALPHA
 10
57.879661
 20
78.777385
 30
0.0
 40
0.5
 50
270.0
 51
90.0
  0
LINE
  5
9137
  8
ALPHA
 10
58.229661
 20
78.177385
 30
0.0
 11
58.229661
 21
76.177385
 31
0.0
  0
LINE
  5
9138
  8
ALPHA
 10
57.479661
 20
79.377385
 30
0.0
 11
57.479661
 21
79.277385
 31
0.0
  0
LINE
  5
9139
  8
ALPHA
 10
58.769683
 20
81.867385
 30
0.0
 11
58.769683
 21
83.977385
 31
0.0
  0
LINE
  5
913A
  8
ALPHA
 10
58.755517
 20
81.867385
 30
0.0
 11
58.755517
 21
83.977385
 31
0.0
  0
LINE
  5
913B
  8
ALPHA
 10
58.67587
 20
81.867385
 30
0.0
 11
58.67587
 21
83.977385
 31
0.0
  0
LINE
  5
913C
  8
ALPHA
 10
58.500913
 20
81.867385
 30
0.0
 11
58.500913
 21
83.977385
 31
0.0
  0
LINE
  5
913D
  8
ALPHA
 10
57.945558
 20
81.867385
 30
0.0
 11
57.945558
 21
83.977385
 31
0.0
  0
LINE
  5
913E
  8
ALPHA
 10
57.778206
 20
81.867385
 30
0.0
 11
57.778206
 21
83.977385
 31
0.0
  0
LINE
  5
913F
  8
ALPHA
 10
57.379661
 20
81.867385
 30
0.0
 11
57.379661
 21
80.527385
 31
0.0
  0
POLYLINE
  5
9140
  8
ALPHA
 66
     1
 10
0.0
 20
0.0
 30
0.0
 70
   128
  0
VERTEX
  5
941F
  8
ALPHA
 10
59.379661
 20
85.645264
 30
0.0
  0
VERTEX
  5
9420
  8
ALPHA
 10
59.445789
 20
85.396732
 30
0.0
  0
VERTEX
  5
9421
  8
ALPHA
 10
59.62672
 20
85.213963
 30
0.0
  0
SEQEND
  5
9422
  8
ALPHA
  0
LINE
  5
9141
  8
ALPHA
 10
59.62672
 20
85.213963
 30
0.0
 11
59.879661
 21
85.071059
 31
0.0
  0
LINE
  5
9142
  8
ALPHA
 10
59.230574
 20
81.867385
 30
0.0
 11
59.230574
 21
83.977385
 31
0.0
  0
LINE
  5
9143
  8
ALPHA
 10
59.229211
 20
81.867385
 30
0.0
 11
59.229211
 21
83.977385
 31
0.0
  0
LINE
  5
9144
  8
ALPHA
 10
59.202045
 20
81.867385
 30
0.0
 11
59.202045
 21
83.977385
 31
0.0
  0
LINE
  5
9145
  8
ALPHA
 10
59.064284
 20
81.867385
 30
0.0
 11
59.064284
 21
83.977385
 31
0.0
  0
LINE
  5
9174
  8
ALPHA
 10
55.129661
 20
112.629938
 30
0.0
 11
57.879661
 21
112.629938
 31
0.0
  0
LINE
  5
9175
  8
ALPHA
 10
55.129661
 20
105.118294
 30
0.0
 11
57.879661
 21
105.118294
 31
0.0
  0
LINE
  5
9176
  8
ALPHA
 10
55.629661
 20
97.879585
 30
0.0
 11
57.879661
 21
97.879585
 31
0.0
  0
LINE
  5
9177
  8
ALPHA
 10
55.879661
 20
97.777385
 30
0.0
 11
59.379661
 21
97.777385
 31
0.0
  0
LINE
  5
9178
  8
ALPHA
 10
55.879661
 20
92.977385
 30
0.0
 11
59.879661
 21
92.977385
 31
0.0
  0
LINE
  5
9179
  8
ALPHA
 10
45.879661
 20
112.629938
 30
0.0
 11
48.629661
 21
112.629938
 31
0.0
  0
LINE
  5
917A
  8
ALPHA
 10
45.879661
 20
105.118294
 30
0.0
 11
48.629661
 21
105.118294
 31
0.0
  0
LINE
  5
917B
  8
ALPHA
 10
45.879661
 20
112.629881
 30
0.0
 11
45.879661
 21
97.879585
 31
0.0
  0
LINE
  5
917C
  8
ALPHA
 10
44.379661
 20
97.777385
 30
0.0
 11
47.879661
 21
97.777385
 31
0.0
  0
LINE
  5
917D
  8
ALPHA
 10
43.879661
 20
92.977385
 30
0.0
 11
47.879661
 21
92.977385
 31
0.0
  0
LINE
  5
917E
  8
ALPHA
 10
43.879661
 20
97.277385
 30
0.0
 11
44.379661
 21
97.777385
 31
0.0
  0
LINE
  5
917F
  8
ALPHA
 10
48.129661
 20
95.452385
 30
0.0
 11
47.879661
 21
95.452385
 31
0.0
  0
LINE
  5
9180
  8
ALPHA
 10
45.879661
 20
97.879585
 30
0.0
 11
48.129661
 21
97.879585
 31
0.0
  0
LINE
  5
9181
  8
ALPHA
 10
55.129661
 20
112.62992
 30
0.0
 11
55.129661
 21
99.837387
 31
0.0
  0
LINE
  5
9182
  8
ALPHA
 10
54.629661
 20
114.829909
 30
0.0
 11
54.629661
 21
100.829966
 31
0.0
  0
LINE
  5
9183
  8
ALPHA
 10
49.129661
 20
114.829909
 30
0.0
 11
49.129661
 21
100.829966
 31
0.0
  0
LINE
  5
9184
  8
ALPHA
 10
48.629661
 20
112.62992
 30
0.0
 11
48.629661
 21
99.837387
 31
0.0
  0
LINE
  5
9185
  8
ALPHA
 10
49.129661
 20
100.829938
 30
0.0
 11
54.629661
 21
100.829938
 31
0.0
  0
LINE
  5
9186
  8
ALPHA
 10
48.629661
 20
99.837387
 30
0.0
 11
55.129661
 21
99.837387
 31
0.0
  0
LINE
  5
9187
  8
ALPHA
 10
55.879661
 20
95.221445
 30
0.0
 11
55.628296
 21
95.36657
 31
0.0
  0
LINE
  5
9188
  8
ALPHA
 10
49.129661
 20
114.829938
 30
0.0
 11
54.629661
 21
114.829938
 31
0.0
  0
LINE
  5
9189
  8
ALPHA
 10
48.879661
 20
111.829877
 30
0.0
 11
48.879661
 21
103.829998
 31
0.0
  0
LINE
  5
918A
  8
ALPHA
 10
48.879661
 20
104.854938
 30
0.0
 11
48.629661
 21
104.854938
 31
0.0
  0
LINE
  5
918B
  8
ALPHA
 10
48.879661
 20
103.829938
 30
0.0
 11
49.129661
 21
103.829938
 31
0.0
  0
LINE
  5
918C
  8
ALPHA
 10
48.879661
 20
111.829938
 30
0.0
 11
49.129661
 21
111.829938
 31
0.0
  0
LINE
  5
918D
  8
ALPHA
 10
48.879661
 20
110.804938
 30
0.0
 11
48.629661
 21
110.804938
 31
0.0
  0
LINE
  5
918E
  8
ALPHA
 10
54.879661
 20
111.829877
 30
0.0
 11
54.879661
 21
103.829998
 31
0.0
  0
LINE
  5
918F
  8
ALPHA
 10
54.629661
 20
103.829938
 30
0.0
 11
54.879661
 21
103.829938
 31
0.0
  0
LINE
  5
9190
  8
ALPHA
 10
55.129661
 20
105.085878
 30
0.0
 11
54.879661
 21
104.94154
 31
0.0
  0
LINE
  5
9191
  8
ALPHA
 10
54.629661
 20
111.829938
 30
0.0
 11
54.879661
 21
111.829938
 31
0.0
  0
LINE
  5
9192
  8
ALPHA
 10
55.129661
 20
110.573997
 30
0.0
 11
54.879661
 21
110.718335
 31
0.0
  0
LINE
  5
9193
  8
ALPHA
 10
57.879661
 20
112.629881
 30
0.0
 11
57.879661
 21
97.879585
 31
0.0
  0
LINE
  5
9194
  8
ALPHA
 10
59.379661
 20
97.777385
 30
0.0
 11
59.879661
 21
97.277385
 31
0.0
  0
LINE
  5
9195
  8
ALPHA
 10
57.929661
 20
109.598995
 30
0.0
 11
57.929661
 21
106.060881
 31
0.0
  0
LINE
  5
9196
  8
ALPHA
 10
57.879661
 20
106.03201
 30
0.0
 11
57.929661
 21
106.060878
 31
0.0
  0
LINE
  5
9197
  8
ALPHA
 10
57.879661
 20
109.627865
 30
0.0
 11
57.929661
 21
109.598997
 31
0.0
  0
VIEWPORT
  5
494D
 67
     1
  8
0
 10
4.995325
 20
6.556512
 30
0.0
 40
22.70986
 41
13.988421
 68
    -1
 69
     1
1001
ACAD
1000
MVIEW
1002
{
1070
    16
1010
0.0
1020
0.0
1030
0.0
1010
0.0
1020
0.0
1030
1.0
1040
0.0
1040
13.988421
1040
4.995325
1040
6.556512
1040
50.0
1040
0.0
1040
0.0
1070
     0
1070
   100
1070
     1
1070
     1
1070
     0
1070
     0
1070
     0
1070
     0
1040
0.0
1040
0.0
1040
0.0
1040
10.0
1040
10.0
1040
10.0
1040
10.0
1070
     0
1002
{
1002
}
1002
}
  0
ENDSEC
  0
EOF
