  0
SECTION
  2
HEADER
  9
$ACADVER
  1
AC1009
  9
$INSBASE
 10
402.590624
 20
-1.041018
 30
0.0
  9
$EXTMIN
 10
-62.988999
 20
32.332779
 30
0.0
  9
$EXTMAX
 10
26.380049
 20
213.832779
 30
0.0
  9
$LIMMIN
 10
-407.970438
 20
-367.832444
  9
$LIMMAX
 10
429.804077
 20
234.370848
  9
$ORTHOMODE
 70
     1
  9
$REGENMODE
 70
     1
  9
$FILLMODE
 70
     1
  9
$QTEXTMODE
 70
     0
  9
$MIRRTEXT
 70
     1
  9
$DRAGMODE
 70
     2
  9
$LTSCALE
 40
10.0
  9
$OSMODE
 70
    37
  9
$ATTMODE
 70
     1
  9
$TEXTSIZE
 40
6.0
  9
$TRACEWID
 40
1.0
  9
$TEXTSTYLE
  7
ROMANS
  9
$CLAYER
  8
ALPHA
  9
$CELTYPE
  6
BYLAYER
  9
$CECOLOR
 62
   256
  9
$DIMSCALE
 40
1.0
  9
$DIMASZ
 40
5.0
  9
$DIMEXO
 40
2.0
  9
$DIMDLI
 40
0.38
  9
$DIMRND
 40
0.0
  9
$DIMDLE
 40
0.0
  9
$DIMEXE
 40
2.5
  9
$DIMTP
 40
0.0
  9
$DIMTM
 40
0.0
  9
$DIMTXT
 40
2.5
  9
$DIMCEN
 40
0.0
  9
$DIMTSZ
 40
0.0
  9
$DIMTOL
 70
     0
  9
$DIMLIM
 70
     0
  9
$DIMTIH
 70
     1
  9
$DIMTOH
 70
     1
  9
$DIMSE1
 70
     0
  9
$DIMSE2
 70
     0
  9
$DIMTAD
 70
     1
  9
$DIMZIN
 70
    12
  9
$DIMBLK
  1
OPEN30
  9
$DIMASO
 70
     1
  9
$DIMSHO
 70
     1
  9
$DIMPOST
  1

  9
$DIMAPOST
  1

  9
$DIMALT
 70
     0
  9
$DIMALTD
 70
     2
  9
$DIMALTF
 40
25.4
  9
$DIMLFAC
 40
1.0
  9
$DIMTOFL
 70
     0
  9
$DIMTVP
 40
0.0
  9
$DIMTIX
 70
     0
  9
$DIMSOXD
 70
     0
  9
$DIMSAH
 70
     0
  9
$DIMBLK1
  1

  9
$DIMBLK2
  1

  9
$DIMSTYLE
  2
SC_DEFAUT
  9
$DIMCLRD
 70
     0
  9
$DIMCLRE
 70
     0
  9
$DIMCLRT
 70
     0
  9
$DIMTFAC
 40
1.0
  9
$DIMGAP
 40
2.0
  9
$LUNITS
 70
     2
  9
$LUPREC
 70
     1
  9
$SKETCHINC
 40
0.1
  9
$FILLETRAD
 40
0.0
  9
$AUNITS
 70
     0
  9
$AUPREC
 70
     0
  9
$MENU
  1
acad
  9
$ELEVATION
 40
0.0
  9
$PELEVATION
 40
0.0
  9
$THICKNESS
 40
0.0
  9
$LIMCHECK
 70
     0
  9
$BLIPMODE
 70
     0
  9
$CHAMFERA
 40
0.0
  9
$CHAMFERB
 40
0.0
  9
$SKPOLY
 70
     0
  9
$TDCREATE
 40
2450373.687919
  9
$TDUPDATE
 40
2452850.407057
  9
$TDINDWG
 40
1.583393
  9
$TDUSRTIMER
 40
1.583393
  9
$USRTIMER
 70
     1
  9
$ANGBASE
 50
0.0
  9
$ANGDIR
 70
     0
  9
$PDMODE
 70
    32
  9
$PDSIZE
 40
0.0
  9
$PLINEWID
 40
0.0
  9
$COORDS
 70
     1
  9
$SPLFRAME
 70
     0
  9
$SPLINETYPE
 70
     6
  9
$SPLINESEGS
 70
     8
  9
$ATTDIA
 70
     0
  9
$ATTREQ
 70
     1
  9
$HANDLING
 70
     1
  9
$HANDSEED
  5
1170E
  9
$SURFTAB1
 70
     6
  9
$SURFTAB2
 70
     6
  9
$SURFTYPE
 70
     6
  9
$SURFU
 70
     6
  9
$SURFV
 70
     6
  9
$UCSNAME
  2

  9
$UCSORG
 10
0.0
 20
0.0
 30
0.0
  9
$UCSXDIR
 10
1.0
 20
0.0
 30
0.0
  9
$UCSYDIR
 10
0.0
 20
1.0
 30
0.0
  9
$PUCSNAME
  2

  9
$PUCSORG
 10
0.0
 20
0.0
 30
0.0
  9
$PUCSXDIR
 10
1.0
 20
0.0
 30
0.0
  9
$PUCSYDIR
 10
0.0
 20
1.0
 30
0.0
  9
$USERI1
 70
     0
  9
$USERI2
 70
     0
  9
$USERI3
 70
     0
  9
$USERI4
 70
     0
  9
$USERI5
 70
     0
  9
$USERR1
 40
0.0
  9
$USERR2
 40
0.0
  9
$USERR3
 40
0.0
  9
$USERR4
 40
0.0
  9
$USERR5
 40
0.0
  9
$WORLDVIEW
 70
     1
  9
$SHADEDGE
 70
     3
  9
$SHADEDIF
 70
    70
  9
$TILEMODE
 70
     1
  9
$MAXACTVP
 70
    16
  9
$PLIMCHECK
 70
     0
  9
$PEXTMIN
 10
-1.452248
 20
-0.437698
 30
0.0
  9
$PEXTMAX
 10
12.749749
 20
8.310198
 30
0.0
  9
$PLIMMIN
 10
0.0
 20
0.0
  9
$PLIMMAX
 10
12.0
 20
9.0
  9
$UNITMODE
 70
     0
  9
$VISRETAIN
 70
     0
  9
$PLINEGEN
 70
     0
  9
$PSLTSCALE
 70
     0
  0
ENDSEC
  0
SECTION
  2
TABLES
  0
TABLE
  2
VPORT
 70
     2
  0
VPORT
  2
*ACTIVE
 70
     0
 10
0.0
 20
0.0
 11
1.0
 21
1.0
 12
-18.325262
 22
123.088761
 13
0.0
 23
0.0
 14
1.0
 24
1.0
 15
10.0
 25
10.0
 16
0.0
 26
0.0
 36
1.0
 17
0.0
 27
0.0
 37
0.0
 40
183.080303
 41
1.56
 42
50.0
 43
0.0
 44
0.0
 50
0.0
 51
0.0
 71
     0
 72
   100
 73
     1
 74
     0
 75
     0
 76
     0
 77
     0
 78
     0
  0
ENDTAB
  0
TABLE
  2
LTYPE
 70
     2
  0
LTYPE
  2
CONTINUOUS
 70
     0
  3
Solid line
 72
    65
 73
     0
 40
0.0
  0
LTYPE
  2
AXES2
 70
     0
  3
___ _ ___ _ ___ _ ___ _ ___ _ ___ _ ___ _ ___ _
 72
    65
 73
     4
 40
1.125
 49
0.75
 49
-0.125
 49
0.125
 49
-0.125
  0
ENDTAB
  0
TABLE
  2
LAYER
 70
     5
  0
LAYER
  2
0
 70
     0
 62
   255
  6
CONTINUOUS
  0
LAYER
  2
COTATION1
 70
     0
 62
     2
  6
CONTINUOUS
  0
LAYER
  2
AXE
 70
     0
 62
    80
  6
AXES2
  0
LAYER
  2
DEFPOINTS
 70
     0
 62
     7
  6
CONTINUOUS
  0
LAYER
  2
ALPHA
 70
     0
 62
   254
  6
CONTINUOUS
  0
ENDTAB
  0
TABLE
  2
STYLE
 70
     2
  0
STYLE
  2
ROMANS
 70
     0
 40
0.0
 41
1.0
 50
0.0
 71
     0
 42
6.0
  3
romans
  4

  0
STYLE
  2
STANDARD
 70
     0
 40
0.2
 41
1.0
 50
0.0
 71
     0
 42
0.2
  3
txt
  4

  0
ENDTAB
  0
TABLE
  2
VIEW
 70
     0
  0
ENDTAB
  0
TABLE
  2
UCS
 70
     0
  0
ENDTAB
  0
TABLE
  2
APPID
 70
     1
  0
APPID
  2
ACAD
 70
     0
  0
ENDTAB
  0
TABLE
  2
DIMSTYLE
 70
     1
  0
DIMSTYLE
  2
SC_DEFAUT
 70
     0
  3

  4

  5
OPEN30
  6

  7

 40
1.0
 41
5.0
 42
2.0
 43
0.38
 44
2.5
 45
0.0
 46
0.0
 47
0.0
 48
0.0
140
2.5
141
0.0
142
0.0
143
25.4
144
1.0
145
0.0
146
1.0
147
2.0
 71
     0
 72
     0
 73
     1
 74
     1
 75
     0
 76
     0
 77
     1
 78
    12
170
     0
171
     2
172
     0
173
     0
174
     0
175
     0
176
     0
177
     0
178
     0
  0
ENDTAB
  0
ENDSEC
  0
SECTION
  2
BLOCKS
  0
BLOCK
  8
0
  2
$MODEL_SPACE
 70
     0
 10
0.0
 20
0.0
 30
0.0
  3
$MODEL_SPACE
  1

  0
ENDBLK
  5
116CB
  8
0
  0
BLOCK
 67
     1
  8
0
  2
$PAPER_SPACE
 70
     0
 10
0.0
 20
0.0
 30
0.0
  3
$PAPER_SPACE
  1

  0
ENDBLK
  5
116C9
 67
     1
  8
0
  0
BLOCK
  8
0
  2
COTE
 70
     0
 10
0.0
 20
0.0
 30
0.0
  3
COTE
  1

  0
ENDBLK
  5
F
  8
0
  0
BLOCK
  8
0
  2
FOND
 70
     0
 10
0.0
 20
0.0
 30
0.0
  3
FOND
  1

  0
ENDBLK
  5
75
  8
0
  0
BLOCK
  8
0
  2
_OPEN30
 70
     0
 10
0.0
 20
0.0
 30
0.0
  3
_OPEN30
  1

  0
LINE
  5
4B05
  8
COTATION1
 62
     0
 10
-1.0
 20
0.267949
 30
0.0
 11
0.0
 21
0.0
 31
0.0
1001
ACAD
1000
RTLwPs
1070
   158
  0
LINE
  5
4B06
  8
COTATION1
 62
     0
 10
0.0
 20
0.0
 30
0.0
 11
-1.0
 21
-0.267949
 31
0.0
1001
ACAD
1000
RTLwPs
1070
   158
  0
LINE
  5
4B07
  8
COTATION1
 62
     0
 10
0.0
 20
0.0
 30
0.0
 11
-1.0
 21
0.0
 31
0.0
1001
ACAD
1000
RTLwPs
1070
   158
  0
ENDBLK
  5
4B09
  8
0
  0
BLOCK
  8
0
  2
*D3
 70
     1
 10
0.0
 20
0.0
 30
0.0
  3
*D3
  1

  0
LINE
  5
10FFC
  8
COTATION1
 62
     0
 10
-24.000903
 20
64.832779
 30
0.0
 11
-24.000903
 21
32.332779
 31
0.0
1001
ACAD
1000
RTLwPs
1070
   158
  0
LINE
  5
10FFD
  8
COTATION1
 62
     0
 10
-8.000903
 20
64.832779
 30
0.0
 11
-8.000903
 21
32.332779
 31
0.0
1001
ACAD
1000
RTLwPs
1070
   158
  0
LINE
  5
10FFE
  8
COTATION1
 62
     0
 10
-19.000903
 20
34.832779
 30
0.0
 11
-13.000903
 21
34.832779
 31
0.0
1001
ACAD
1000
RTLwPs
1070
   158
  0
INSERT
  5
10FFF
  8
COTATION1
 62
     0
  2
_OPEN30
 10
-24.000903
 20
34.832779
 30
0.0
 41
5.0
 42
5.0
 43
5.0
 50
180.0
1001
ACAD
1000
RTLwPs
1070
   158
  0
INSERT
  5
11000
  8
COTATION1
 62
     0
  2
_OPEN30
 10
-8.000903
 20
34.832779
 30
0.0
 41
5.0
 42
5.0
 43
5.0
1001
ACAD
1000
RTLwPs
1070
   158
  0
TEXT
  5
11001
  8
COTATION1
 62
     0
 10
-18.560427
 20
36.832779
 30
0.0
 40
2.5
  1
16
1001
ACAD
1000
MTEXTBEGIN
1070
    73
1070
     1
1070
    44
1040
1.0
1070
    74
1070
     0
1000
MTEXTEND
1000
MTEXTBEGIN
1070
    73
1070
     1
1070
    44
1040
1.0
1070
    74
1070
     0
1000
MTEXTEND
1000
MTEXTBEGIN
1070
    73
1070
     1
1070
    44
1040
1.0
1070
    74
1070
     0
1000
MTEXTEND
  0
POINT
  5
11002
  8
DEFPOINTS
 62
     0
 10
-24.000903
 20
66.832779
 30
0.0
  0
POINT
  5
11003
  8
DEFPOINTS
 62
     0
 10
-8.000903
 20
66.832779
 30
0.0
  0
POINT
  5
11004
  8
DEFPOINTS
 62
     0
 10
-8.000903
 20
34.832779
 30
0.0
  0
ENDBLK
  5
100B4
  8
0
  0
BLOCK
  8
0
  2
*D4
 70
     1
 10
0.0
 20
0.0
 30
0.0
  3
*D4
  1

  0
LINE
  5
11431
  8
COTATION1
 62
     0
 10
-41.000903
 20
189.332779
 30
0.0
 11
-41.000903
 21
211.832779
 31
0.0
1001
ACAD
1000
RTLwPs
1070
   158
  0
LINE
  5
11432
  8
COTATION1
 62
     0
 10
-8.000903
 20
134.495072
 30
0.0
 11
-8.000903
 21
211.832779
 31
0.0
1001
ACAD
1000
RTLwPs
1070
   158
  0
LINE
  5
11433
  8
COTATION1
 62
     0
 10
-36.000903
 20
209.332779
 30
0.0
 11
-13.000903
 21
209.332779
 31
0.0
1001
ACAD
1000
RTLwPs
1070
   158
  0
INSERT
  5
11434
  8
COTATION1
 62
     0
  2
_OPEN30
 10
-41.000903
 20
209.332779
 30
0.0
 41
5.0
 42
5.0
 43
5.0
 50
180.0
1001
ACAD
1000
RTLwPs
1070
   158
  0
INSERT
  5
11435
  8
COTATION1
 62
     0
  2
_OPEN30
 10
-8.000903
 20
209.332779
 30
0.0
 41
5.0
 42
5.0
 43
5.0
1001
ACAD
1000
RTLwPs
1070
   158
  0
TEXT
  5
11436
  8
COTATION1
 62
     0
 10
-26.881856
 20
211.332779
 30
0.0
 40
2.5
  1
33
1001
ACAD
1000
MTEXTBEGIN
1070
    73
1070
     1
1070
    44
1040
1.0
1070
    74
1070
     0
1000
MTEXTEND
1000
MTEXTBEGIN
1070
    73
1070
     1
1070
    44
1040
1.0
1070
    74
1070
     0
1000
MTEXTEND
  0
POINT
  5
11437
  8
DEFPOINTS
 62
     0
 10
-41.000903
 20
187.332779
 30
0.0
  0
POINT
  5
11438
  8
DEFPOINTS
 62
     0
 10
-8.000903
 20
132.495072
 30
0.0
  0
POINT
  5
11439
  8
DEFPOINTS
 62
     0
 10
-8.000903
 20
209.332779
 30
0.0
  0
ENDBLK
  5
11423
  8
0
  0
BLOCK
  8
0
  2
*D5
 70
     1
 10
0.0
 20
0.0
 30
0.0
  3
*D5
  1

  0
LINE
  5
1143A
  8
COTATION1
 62
     0
 10
-43.750903
 20
186.332779
 30
0.0
 11
-43.750903
 21
201.832779
 31
0.0
1001
ACAD
1000
RTLwPs
1070
   158
  0
LINE
  5
1143B
  8
COTATION1
 62
     0
 10
-38.250903
 20
186.332779
 30
0.0
 11
-38.250903
 21
201.832779
 31
0.0
1001
ACAD
1000
RTLwPs
1070
   158
  0
LINE
  5
1143C
  8
COTATION1
 62
     0
 10
-33.250903
 20
199.332779
 30
0.0
 11
-28.250903
 21
199.332779
 31
0.0
1001
ACAD
1000
RTLwPs
1070
   158
  0
LINE
  5
1143D
  8
COTATION1
 62
     0
 10
-48.750903
 20
199.332779
 30
0.0
 11
-62.988999
 21
199.332779
 31
0.0
1001
ACAD
1000
RTLwPs
1070
   158
  0
INSERT
  5
1143E
  8
COTATION1
 62
     0
  2
_OPEN30
 10
-38.250903
 20
199.332779
 30
0.0
 41
5.0
 42
5.0
 43
5.0
 50
180.0
1001
ACAD
1000
RTLwPs
1070
   158
  0
INSERT
  5
1143F
  8
COTATION1
 62
     0
  2
_OPEN30
 10
-43.750903
 20
199.332779
 30
0.0
 41
5.0
 42
5.0
 43
5.0
1001
ACAD
1000
RTLwPs
1070
   158
  0
TEXT
  5
11440
  8
COTATION1
 62
     0
 10
-61.346142
 20
201.332779
 30
0.0
 40
2.5
  1
5.5
1001
ACAD
1000
MTEXTBEGIN
1070
    73
1070
     1
1070
    44
1040
1.0
1070
    74
1070
     0
1000
MTEXTEND
1000
MTEXTBEGIN
1070
    73
1070
     1
1070
    44
1040
1.0
1070
    74
1070
     0
1000
MTEXTEND
  0
POINT
  5
11441
  8
DEFPOINTS
 62
     0
 10
-43.750903
 20
184.332779
 30
0.0
  0
POINT
  5
11442
  8
DEFPOINTS
 62
     0
 10
-38.250903
 20
184.332779
 30
0.0
  0
POINT
  5
11443
  8
DEFPOINTS
 62
     0
 10
-38.250903
 20
199.332779
 30
0.0
  0
ENDBLK
  5
11430
  8
0
  0
BLOCK
  8
0
  2
*D6
 70
     1
 10
0.0
 20
0.0
 30
0.0
  3
*D6
  1

  0
LINE
  5
11452
  8
COTATION1
 62
     0
 10
-36.250903
 20
184.332779
 30
0.0
 11
21.499097
 21
184.332779
 31
0.0
1001
ACAD
1000
RTLwPs
1070
   158
  0
LINE
  5
11453
  8
COTATION1
 62
     0
 10
-6.000903
 20
66.832779
 30
0.0
 11
21.499097
 21
66.832779
 31
0.0
1001
ACAD
1000
RTLwPs
1070
   158
  0
LINE
  5
11454
  8
COTATION1
 62
     0
 10
18.999097
 20
179.332779
 30
0.0
 11
18.999097
 21
128.832779
 31
0.0
1001
ACAD
1000
RTLwPs
1070
   158
  0
LINE
  5
11455
  8
COTATION1
 62
     0
 10
18.999097
 20
71.832779
 30
0.0
 11
18.999097
 21
122.332779
 31
0.0
1001
ACAD
1000
RTLwPs
1070
   158
  0
INSERT
  5
11456
  8
COTATION1
 62
     0
  2
_OPEN30
 10
18.999097
 20
184.332779
 30
0.0
 41
5.0
 42
5.0
 43
5.0
 50
90.0
1001
ACAD
1000
RTLwPs
1070
   158
  0
INSERT
  5
11457
  8
COTATION1
 62
     0
  2
_OPEN30
 10
18.999097
 20
66.832779
 30
0.0
 41
5.0
 42
5.0
 43
5.0
 50
270.0
1001
ACAD
1000
RTLwPs
1070
   158
  0
TEXT
  5
11458
  8
COTATION1
 62
     0
 10
11.261001
 20
124.332779
 30
0.0
 40
2.5
  1
93...143
1001
ACAD
1000
MTEXTBEGIN
1070
    73
1070
     1
1070
    44
1040
1.0
1070
    74
1070
     0
1000
MTEXTEND
1000
MTEXTBEGIN
1070
    73
1070
     1
1070
    44
1040
1.0
1070
    74
1070
     0
1000
MTEXTEND
  0
POINT
  5
11459
  8
DEFPOINTS
 62
     0
 10
-38.250903
 20
184.332779
 30
0.0
  0
POINT
  5
1145A
  8
DEFPOINTS
 62
     0
 10
-8.000903
 20
66.832779
 30
0.0
  0
POINT
  5
1145B
  8
DEFPOINTS
 62
     0
 10
18.999097
 20
66.832779
 30
0.0
  0
ENDBLK
  5
11451
  8
0
  0
ENDSEC
  0
SECTION
  2
ENTITIES
  0
INSERT
  5
A
  8
0
  2
COTE
 10
0.0
 20
0.0
 30
0.0
  0
INSERT
  5
17
  8
0
  2
COTE
 10
284.010391
 20
6.373258
 30
0.0
  0
INSERT
  5
72
  8
0
  2
FOND
 10
0.0
 20
0.0
 30
0.0
  0
LINE
  5
10079
  8
AXE
 10
-16.000903
 20
139.832779
 30
0.0
 11
-16.000903
 21
44.832779
 31
0.0
  0
LINE
  5
1007D
  8
ALPHA
 10
-24.000903
 20
66.832779
 30
0.0
 11
-24.000903
 21
116.832779
 31
0.0
  0
LINE
  5
1007E
  8
ALPHA
 10
-8.000903
 20
66.832779
 30
0.0
 11
-8.000903
 21
132.495072
 31
0.0
  0
DIMENSION
  5
1007F
  8
COTATION1
  2
*D3
 10
-8.000903
 20
34.832779
 30
0.0
 11
-16.000903
 21
38.082779
 31
0.0
 13
-24.000903
 23
66.832779
 33
0.0
 14
-8.000903
 24
66.832779
 34
0.0
  0
TEXT
  5
10080
  8
AXE
 10
-23.477094
 20
44.832779
 30
0.0
 40
8.0
  1
Y
 72
     2
 11
-17.000903
 21
44.832779
 31
0.0
  0
LINE
  5
10086
  8
AXE
 10
-29.000903
 20
91.832779
 30
0.0
 11
4.499097
 21
91.832779
 31
0.0
  0
LINE
  5
1008C
  8
ALPHA
 10
-24.000903
 20
114.832779
 30
0.0
 11
-8.000903
 21
114.832779
 31
0.0
  0
TEXT
  5
10098
  8
AXE
 10
-1.977094
 20
92.832779
 30
0.0
 40
8.0
  1
Z
 72
     2
 11
4.499097
 21
92.832779
 31
0.0
  0
ARC
  5
1037F
  8
ALPHA
 10
-16.000903
 20
74.332779
 30
0.0
 40
3.5
 50
0.0
 51
180.0
  0
LINE
  5
10380
  8
ALPHA
 10
-22.750903
 20
80.832779
 30
0.0
 11
-22.750903
 21
66.832779
 31
0.0
  0
LINE
  5
10381
  8
ALPHA
 10
-20.750903
 20
79.332779
 30
0.0
 11
-20.750903
 21
72.832779
 31
0.0
  0
LINE
  5
10382
  8
ALPHA
 10
-11.250903
 20
79.332779
 30
0.0
 11
-11.250903
 21
72.832779
 31
0.0
  0
LINE
  5
10383
  8
ALPHA
 10
-9.250903
 20
80.832779
 30
0.0
 11
-9.250903
 21
66.832779
 31
0.0
  0
LINE
  5
10384
  8
ALPHA
 10
-11.983868
 20
66.832779
 30
0.0
 11
-8.000903
 21
66.832779
 31
0.0
  0
LINE
  5
10385
  8
ALPHA
 10
-24.000903
 20
66.832779
 30
0.0
 11
-18.983868
 21
66.832779
 31
0.0
  0
LINE
  5
10386
  8
ALPHA
 10
-20.750903
 20
72.832779
 30
0.0
 11
-19.500903
 21
72.832779
 31
0.0
  0
LINE
  5
10387
  8
ALPHA
 10
-19.500903
 20
74.332779
 30
0.0
 11
-19.500903
 21
72.332779
 31
0.0
  0
LINE
  5
10388
  8
ALPHA
 10
-11.250903
 20
72.832779
 30
0.0
 11
-12.500903
 21
72.832779
 31
0.0
  0
LINE
  5
10389
  8
ALPHA
 10
-12.500903
 20
74.332779
 30
0.0
 11
-12.500903
 21
72.332779
 31
0.0
  0
LINE
  5
1038A
  8
ALPHA
 10
-9.250903
 20
80.832779
 30
0.0
 11
-16.000903
 21
80.832779
 31
0.0
  0
LINE
  5
1038B
  8
ALPHA
 10
-9.250903
 20
79.332779
 30
0.0
 11
-11.250903
 21
79.332779
 31
0.0
  0
LINE
  5
1038C
  8
ALPHA
 10
-22.750903
 20
80.832779
 30
0.0
 11
-16.000903
 21
80.832779
 31
0.0
  0
LINE
  5
1038D
  8
ALPHA
 10
-22.750903
 20
79.332779
 30
0.0
 11
-20.750903
 21
79.332779
 31
0.0
  0
ARC
  5
1038E
  8
ALPHA
 10
13.772153
 20
72.028312
 30
0.0
 40
26.27482
 50
179.336055
 51
207.655412
  0
ARC
  5
1038F
  8
ALPHA
 10
6.772153
 20
72.028312
 30
0.0
 40
26.27482
 50
179.336055
 51
207.655412
  0
LINE
  5
10390
  8
AXE
 10
-18.000903
 20
59.832779
 30
0.0
 11
-8.000903
 21
59.832779
 31
0.0
  0
LINE
  5
10EAD
  8
ALPHA
 10
-24.000903
 20
114.832779
 30
0.0
 11
-8.000903
 21
114.832779
 31
0.0
  0
POLYLINE
  5
113E5
  8
ALPHA
 66
     1
 10
0.0
 20
0.0
 30
0.0
 70
   128
210
0.0
220
0.0
230
-1.0
  0
VERTEX
  5
116D1
  8
ALPHA
 10
10.001527
 20
134.49445
 30
0.0
  0
VERTEX
  5
116D2
  8
ALPHA
 10
9.222895
 20
134.337304
 30
0.0
  0
VERTEX
  5
116D3
  8
ALPHA
 10
8.586963
 20
133.90878
 30
0.0
  0
VERTEX
  5
116D4
  8
ALPHA
 10
8.158156
 20
133.273246
 30
0.0
  0
VERTEX
  5
116D5
  8
ALPHA
 10
8.000903
 20
132.495072
 30
0.0
  0
SEQEND
  5
116D6
  8
ALPHA
  0
POLYLINE
  5
113E6
  8
ALPHA
 66
     1
 10
0.0
 20
0.0
 30
0.0
 70
   128
  0
VERTEX
  5
116D7
  8
ALPHA
 10
-16.001566
 20
122.837802
 30
0.0
  0
VERTEX
  5
116D8
  8
ALPHA
 10
-17.34862
 20
122.595628
 30
0.0
  0
VERTEX
  5
116D9
  8
ALPHA
 10
-18.615827
 20
121.957167
 30
0.0
  0
VERTEX
  5
116DA
  8
ALPHA
 10
-20.875126
 20
120.01977
 30
0.0
  0
VERTEX
  5
116DB
  8
ALPHA
 10
-22.708302
 20
118.082373
 30
0.0
  0
VERTEX
  5
116DC
  8
ALPHA
 10
-23.442857
 20
117.443912
 30
0.0
  0
VERTEX
  5
116DD
  8
ALPHA
 10
-24.000906
 20
117.201737
 30
0.0
  0
SEQEND
  5
116DE
  8
ALPHA
  0
LINE
  5
113E7
  8
ALPHA
 10
-38.250903
 20
119.775227
 30
0.0
 11
-38.250903
 21
132.845475
 31
0.0
  0
LINE
  5
113E8
  8
ALPHA
 10
-38.754332
 20
132.832779
 30
0.0
 11
-38.754332
 21
119.832779
 31
0.0
  0
LINE
  5
113E9
  8
ALPHA
 10
-35.250903
 20
136.332779
 30
0.0
 11
-35.250903
 21
116.332779
 31
0.0
  0
POLYLINE
  5
113EA
  8
ALPHA
 66
     1
 10
0.0
 20
0.0
 30
0.0
 70
   128
  0
VERTEX
  5
116DF
  8
ALPHA
 10
-33.998319
 20
117.201737
 30
0.0
  0
VERTEX
  5
116E0
  8
ALPHA
 10
-33.998307
 20
117.395943
 30
0.0
  0
VERTEX
  5
116E1
  8
ALPHA
 10
-33.998271
 20
117.944784
 30
0.0
  0
VERTEX
  5
116E2
  8
ALPHA
 10
-33.998146
 20
119.903724
 30
0.0
  0
VERTEX
  5
116E3
  8
ALPHA
 10
-33.997968
 20
122.67326
 30
0.0
  0
VERTEX
  5
116E4
  8
ALPHA
 10
-33.997764
 20
125.848094
 30
0.0
  0
VERTEX
  5
116E5
  8
ALPHA
 10
-33.99756
 20
129.022927
 30
0.0
  0
VERTEX
  5
116E6
  8
ALPHA
 10
-33.997382
 20
131.792463
 30
0.0
  0
VERTEX
  5
116E7
  8
ALPHA
 10
-33.997256
 20
133.751403
 30
0.0
  0
VERTEX
  5
116E8
  8
ALPHA
 10
-33.99722
 20
134.300244
 30
0.0
  0
VERTEX
  5
116E9
  8
ALPHA
 10
-33.997208
 20
134.49445
 30
0.0
  0
SEQEND
  5
116EA
  8
ALPHA
  0
LINE
  5
113EB
  8
ALPHA
 10
-33.997209
 20
121.283291
 30
0.0
 11
-33.997209
 21
131.337414
 31
0.0
  0
LINE
  5
113EC
  8
ALPHA
 10
-38.250903
 20
131.337414
 30
0.0
 11
-38.250903
 21
121.283291
 31
0.0
  0
POLYLINE
  5
113ED
  8
ALPHA
 66
     1
 10
0.0
 20
0.0
 30
0.0
 70
   128
  0
VERTEX
  5
116EB
  8
ALPHA
 10
-24.000906
 20
117.201737
 30
0.0
  0
VERTEX
  5
116EC
  8
ALPHA
 10
-24.471913
 20
117.201737
 30
0.0
  0
VERTEX
  5
116ED
  8
ALPHA
 10
-25.599529
 20
117.201737
 30
0.0
  0
VERTEX
  5
116EE
  8
ALPHA
 10
-29.021258
 20
117.201737
 30
0.0
  0
VERTEX
  5
116EF
  8
ALPHA
 10
-32.442988
 20
117.201737
 30
0.0
  0
VERTEX
  5
116F0
  8
ALPHA
 10
-33.570603
 20
117.201737
 30
0.0
  0
VERTEX
  5
116F1
  8
ALPHA
 10
-33.998319
 20
117.201737
 30
0.0
  0
SEQEND
  5
116F2
  8
ALPHA
  0
LINE
  5
113EE
  8
ALPHA
 10
-38.250903
 20
119.832779
 30
0.0
 11
-38.754332
 21
119.832779
 31
0.0
  0
LINE
  5
113EF
  8
ALPHA
 10
-33.997347
 20
120.332779
 30
0.0
 11
-35.250903
 21
120.332779
 31
0.0
  0
LINE
  5
113F0
  8
ALPHA
 10
-35.250903
 20
121.283291
 30
0.0
 11
-33.997209
 21
121.283291
 31
0.0
  0
LINE
  5
113F1
  8
ALPHA
 10
-35.250903
 20
116.332779
 30
0.0
 11
-36.250903
 21
116.332779
 31
0.0
  0
LINE
  5
113F2
  8
ALPHA
 10
-24.000903
 20
116.832779
 30
0.0
 11
-8.000903
 21
116.832779
 31
0.0
  0
LINE
  5
113F3
  8
ALPHA
 10
-24.000903
 20
114.832779
 30
0.0
 11
-8.000903
 21
114.832779
 31
0.0
  0
LINE
  5
113F4
  8
ALPHA
 10
-24.000906
 20
116.832779
 30
0.0
 11
-24.000906
 21
117.201737
 31
0.0
  0
DIMENSION
  5
113F5
  8
COTATION1
  2
*D4
 10
-8.000903
 20
209.332779
 30
0.0
 11
-24.500903
 21
212.582779
 31
0.0
 13
-41.000903
 23
187.332779
 33
0.0
 14
-8.000903
 24
132.495072
 34
0.0
  0
POLYLINE
  5
113F6
  8
ALPHA
 66
     1
 10
0.0
 20
0.0
 30
0.0
 70
   128
  0
VERTEX
  5
116F3
  8
ALPHA
 10
-33.997208
 20
134.49445
 30
0.0
  0
VERTEX
  5
116F4
  8
ALPHA
 10
-33.727363
 20
134.49445
 30
0.0
  0
VERTEX
  5
116F5
  8
ALPHA
 10
-32.964759
 20
134.49445
 30
0.0
  0
VERTEX
  5
116F6
  8
ALPHA
 10
-31.77979
 20
134.49445
 30
0.0
  0
VERTEX
  5
116F7
  8
ALPHA
 10
-30.24285
 20
134.49445
 30
0.0
  0
VERTEX
  5
116F8
  8
ALPHA
 10
-26.394632
 20
134.49445
 30
0.0
  0
VERTEX
  5
116F9
  8
ALPHA
 10
-21.983261
 20
134.49445
 30
0.0
  0
VERTEX
  5
116FA
  8
ALPHA
 10
-17.57189
 20
134.49445
 30
0.0
  0
VERTEX
  5
116FB
  8
ALPHA
 10
-13.723673
 20
134.49445
 30
0.0
  0
VERTEX
  5
116FC
  8
ALPHA
 10
-12.186733
 20
134.49445
 30
0.0
  0
VERTEX
  5
116FD
  8
ALPHA
 10
-11.001763
 20
134.49445
 30
0.0
  0
VERTEX
  5
116FE
  8
ALPHA
 10
-10.239159
 20
134.49445
 30
0.0
  0
VERTEX
  5
116FF
  8
ALPHA
 10
-9.969315
 20
134.49445
 30
0.0
  0
SEQEND
  5
11700
  8
ALPHA
  0
DIMENSION
  5
113F7
  8
COTATION1
  2
*D5
 10
-38.250903
 20
199.332779
 30
0.0
 11
-58.369951
 21
199.332779
 31
0.0
 70
   128
 13
-43.750903
 23
184.332779
 33
0.0
 14
-38.250903
 24
184.332779
 34
0.0
  0
LINE
  5
113F8
  8
ALPHA
 10
-16.001567
 20
122.837803
 30
0.0
 11
-33.868296
 21
122.837803
 31
0.0
  0
LINE
  5
113F9
  8
AXE
 10
-41.000903
 20
187.332779
 30
0.0
 11
-41.000903
 21
165.332779
 31
0.0
  0
LINE
  5
113FA
  8
ALPHA
 10
-43.750903
 20
184.332779
 30
0.0
 11
-43.750903
 21
168.332779
 31
0.0
  0
LINE
  5
113FB
  8
ALPHA
 10
-38.250903
 20
132.832779
 30
0.0
 11
-38.754332
 21
132.832779
 31
0.0
  0
LINE
  5
113FC
  8
ALPHA
 10
-40.563564
 20
130.215534
 30
0.0
 11
-38.754333
 21
130.332779
 31
0.0
  0
LINE
  5
113FD
  8
ALPHA
 10
-40.645246
 20
126.81378
 30
0.0
 11
-41.555974
 21
126.81378
 31
0.0
  0
LINE
  5
113FE
  8
ALPHA
 10
-41.555974
 20
125.808035
 30
0.0
 11
-40.645246
 21
125.808035
 31
0.0
  0
POLYLINE
  5
113FF
  8
ALPHA
 66
     1
 10
0.0
 20
0.0
 30
0.0
 70
   128
210
0.0
220
0.0
230
-1.0
  0
VERTEX
  5
11701
  8
ALPHA
 10
40.563564
 20
122.405169
 30
0.0
  0
VERTEX
  5
11702
  8
ALPHA
 10
40.701984
 20
122.62001
 30
0.0
  0
VERTEX
  5
11703
  8
ALPHA
 10
41.015386
 20
123.261651
 30
0.0
  0
VERTEX
  5
11704
  8
ALPHA
 10
41.350979
 20
124.325767
 30
0.0
  0
VERTEX
  5
11705
  8
ALPHA
 10
41.555974
 20
125.808035
 30
0.0
  0
SEQEND
  5
11706
  8
ALPHA
  0
LINE
  5
11400
  8
ALPHA
 10
-38.754333
 20
122.289036
 30
0.0
 11
-40.563564
 21
122.405169
 31
0.0
  0
LINE
  5
11401
  8
ALPHA
 10
-40.645246
 20
125.808035
 30
0.0
 11
-40.645246
 21
126.81378
 31
0.0
  0
POLYLINE
  5
11402
  8
ALPHA
 66
     1
 10
0.0
 20
0.0
 30
0.0
 70
   128
210
0.0
220
0.0
230
-1.0
  0
VERTEX
  5
11707
  8
ALPHA
 10
41.555974
 20
126.81378
 30
0.0
  0
VERTEX
  5
11708
  8
ALPHA
 10
41.350979
 20
128.295875
 30
0.0
  0
VERTEX
  5
11709
  8
ALPHA
 10
41.015386
 20
129.359609
 30
0.0
  0
VERTEX
  5
1170A
  8
ALPHA
 10
40.701984
 20
130.000867
 30
0.0
  0
VERTEX
  5
1170B
  8
ALPHA
 10
40.563564
 20
130.215534
 30
0.0
  0
SEQEND
  5
1170C
  8
ALPHA
  0
LINE
  5
11403
  8
ALPHA
 10
-33.997209
 20
131.337414
 30
0.0
 11
-35.250903
 21
131.337414
 31
0.0
  0
LINE
  5
11404
  8
ALPHA
 10
-35.250903
 20
130.878994
 30
0.0
 11
-33.997209
 21
130.878994
 31
0.0
  0
LINE
  5
11405
  8
ALPHA
 10
-35.250903
 20
130.236094
 30
0.0
 11
-33.997209
 21
130.236094
 31
0.0
  0
LINE
  5
11406
  8
ALPHA
 10
-33.997347
 20
132.332779
 30
0.0
 11
-35.250903
 21
132.332779
 31
0.0
  0
LINE
  5
11407
  8
ALPHA
 10
-35.250903
 20
121.741711
 30
0.0
 11
-33.997209
 21
121.741711
 31
0.0
  0
LINE
  5
11408
  8
ALPHA
 10
-35.250903
 20
122.384611
 30
0.0
 11
-33.997209
 21
122.384611
 31
0.0
  0
LINE
  5
11409
  8
ALPHA
 10
-35.250903
 20
123.049182
 30
0.0
 11
-33.997209
 21
123.049182
 31
0.0
  0
LINE
  5
1140A
  8
ALPHA
 10
-35.250903
 20
123.950462
 30
0.0
 11
-33.997209
 21
123.950462
 31
0.0
  0
LINE
  5
1140B
  8
ALPHA
 10
-35.250903
 20
124.852856
 30
0.0
 11
-33.997209
 21
124.852856
 31
0.0
  0
LINE
  5
1140C
  8
ALPHA
 10
-35.250903
 20
125.754136
 30
0.0
 11
-33.997209
 21
125.754136
 31
0.0
  0
LINE
  5
1140D
  8
ALPHA
 10
-35.250903
 20
128.670243
 30
0.0
 11
-33.997209
 21
128.670243
 31
0.0
  0
LINE
  5
1140E
  8
ALPHA
 10
-35.250903
 20
127.768962
 30
0.0
 11
-33.997209
 21
127.768962
 31
0.0
  0
LINE
  5
1140F
  8
ALPHA
 10
-35.250903
 20
126.867678
 30
0.0
 11
-33.997209
 21
126.867678
 31
0.0
  0
LINE
  5
11410
  8
ALPHA
 10
-35.250903
 20
129.571524
 30
0.0
 11
-33.997209
 21
129.571524
 31
0.0
  0
LINE
  5
11411
  8
ALPHA
 10
-35.250903
 20
136.332779
 30
0.0
 11
-36.250903
 21
136.332779
 31
0.0
  0
LINE
  5
11412
  8
ALPHA
 10
-43.750903
 20
168.332779
 30
0.0
 11
-38.250903
 21
168.332779
 31
0.0
  0
LINE
  5
11413
  8
ALPHA
 10
-43.750903
 20
184.332779
 30
0.0
 11
-38.250903
 21
184.332779
 31
0.0
  0
LINE
  5
11414
  8
ALPHA
 10
-38.250903
 20
182.832779
 30
0.0
 11
-36.250903
 21
182.832779
 31
0.0
  0
LINE
  5
11415
  8
ALPHA
 10
-36.250903
 20
182.832779
 30
0.0
 11
-36.250903
 21
80.332779
 31
0.0
  0
LINE
  5
11416
  8
ALPHA
 10
-38.250903
 20
184.332779
 30
0.0
 11
-38.250903
 21
80.332779
 31
0.0
  0
LINE
  5
11417
  8
ALPHA
 10
-36.250903
 20
80.332779
 30
0.0
 11
-38.250903
 21
80.332779
 31
0.0
  0
DIMENSION
  5
11444
  8
COTATION1
  2
*D6
 10
18.999097
 20
66.832779
 30
0.0
 11
18.999097
 21
125.582779
 31
0.0
  1
93...143
 13
-38.250903
 23
184.332779
 33
0.0
 14
-8.000903
 24
66.832779
 34
0.0
 50
90.0
  0
VIEWPORT
  5
494D
 67
     1
  8
0
 10
4.995325
 20
6.556512
 30
0.0
 40
22.70986
 41
13.988421
 68
    -1
 69
     1
1001
ACAD
1000
MVIEW
1002
{
1070
    16
1010
0.0
1020
0.0
1030
0.0
1010
0.0
1020
0.0
1030
1.0
1040
0.0
1040
13.988421
1040
4.995325
1040
6.556512
1040
50.0
1040
0.0
1040
0.0
1070
     0
1070
   100
1070
     1
1070
     1
1070
     0
1070
     0
1070
     0
1070
     0
1040
0.0
1040
0.0
1040
0.0
1040
10.0
1040
10.0
1040
10.0
1040
10.0
1070
     0
1002
{
1002
}
1002
}
  0
ENDSEC
  0
EOF
