  0
SECTION
  2
HEADER
  9
$ACADVER
  1
AC1009
  9
$INSBASE
 10
402.590624
 20
-1.041018
 30
0.0
  9
$EXTMIN
 10
-204.93565
 20
28.332779
 30
0.0
  9
$EXTMAX
 10
-93.300941
 20
203.832779
 30
0.0
  9
$LIMMIN
 10
-407.970438
 20
-367.832444
  9
$LIMMAX
 10
429.804077
 20
234.370848
  9
$ORTHOMODE
 70
     1
  9
$REGENMODE
 70
     1
  9
$FILLMODE
 70
     1
  9
$QTEXTMODE
 70
     0
  9
$MIRRTEXT
 70
     1
  9
$DRAGMODE
 70
     2
  9
$LTSCALE
 40
10.0
  9
$OSMODE
 70
    37
  9
$ATTMODE
 70
     1
  9
$TEXTSIZE
 40
6.0
  9
$TRACEWID
 40
1.0
  9
$TEXTSTYLE
  7
ROMANS
  9
$CLAYER
  8
ALPHA
  9
$CELTYPE
  6
BYLAYER
  9
$CECOLOR
 62
   256
  9
$DIMSCALE
 40
1.0
  9
$DIMASZ
 40
5.0
  9
$DIMEXO
 40
2.0
  9
$DIMDLI
 40
0.38
  9
$DIMRND
 40
0.0
  9
$DIMDLE
 40
0.0
  9
$DIMEXE
 40
2.5
  9
$DIMTP
 40
0.0
  9
$DIMTM
 40
0.0
  9
$DIMTXT
 40
2.5
  9
$DIMCEN
 40
0.0
  9
$DIMTSZ
 40
0.0
  9
$DIMTOL
 70
     0
  9
$DIMLIM
 70
     0
  9
$DIMTIH
 70
     1
  9
$DIMTOH
 70
     1
  9
$DIMSE1
 70
     0
  9
$DIMSE2
 70
     0
  9
$DIMTAD
 70
     1
  9
$DIMZIN
 70
    12
  9
$DIMBLK
  1
OPEN30
  9
$DIMASO
 70
     1
  9
$DIMSHO
 70
     1
  9
$DIMPOST
  1

  9
$DIMAPOST
  1

  9
$DIMALT
 70
     0
  9
$DIMALTD
 70
     2
  9
$DIMALTF
 40
25.4
  9
$DIMLFAC
 40
1.0
  9
$DIMTOFL
 70
     0
  9
$DIMTVP
 40
0.0
  9
$DIMTIX
 70
     0
  9
$DIMSOXD
 70
     0
  9
$DIMSAH
 70
     0
  9
$DIMBLK1
  1

  9
$DIMBLK2
  1

  9
$DIMSTYLE
  2
SC_DEFAUT
  9
$DIMCLRD
 70
     0
  9
$DIMCLRE
 70
     0
  9
$DIMCLRT
 70
     0
  9
$DIMTFAC
 40
1.0
  9
$DIMGAP
 40
2.0
  9
$LUNITS
 70
     2
  9
$LUPREC
 70
     1
  9
$SKETCHINC
 40
0.1
  9
$FILLETRAD
 40
0.0
  9
$AUNITS
 70
     0
  9
$AUPREC
 70
     0
  9
$MENU
  1
acad
  9
$ELEVATION
 40
0.0
  9
$PELEVATION
 40
0.0
  9
$THICKNESS
 40
0.0
  9
$LIMCHECK
 70
     0
  9
$BLIPMODE
 70
     0
  9
$CHAMFERA
 40
0.0
  9
$CHAMFERB
 40
0.0
  9
$SKPOLY
 70
     0
  9
$TDCREATE
 40
2450373.687919
  9
$TDUPDATE
 40
2452850.406655
  9
$TDINDWG
 40
1.583519
  9
$TDUSRTIMER
 40
1.583519
  9
$USRTIMER
 70
     1
  9
$ANGBASE
 50
0.0
  9
$ANGDIR
 70
     0
  9
$PDMODE
 70
    32
  9
$PDSIZE
 40
0.0
  9
$PLINEWID
 40
0.0
  9
$COORDS
 70
     1
  9
$SPLFRAME
 70
     0
  9
$SPLINETYPE
 70
     6
  9
$SPLINESEGS
 70
     8
  9
$ATTDIA
 70
     0
  9
$ATTREQ
 70
     1
  9
$HANDLING
 70
     1
  9
$HANDSEED
  5
116F5
  9
$SURFTAB1
 70
     6
  9
$SURFTAB2
 70
     6
  9
$SURFTYPE
 70
     6
  9
$SURFU
 70
     6
  9
$SURFV
 70
     6
  9
$UCSNAME
  2

  9
$UCSORG
 10
0.0
 20
0.0
 30
0.0
  9
$UCSXDIR
 10
1.0
 20
0.0
 30
0.0
  9
$UCSYDIR
 10
0.0
 20
1.0
 30
0.0
  9
$PUCSNAME
  2

  9
$PUCSORG
 10
0.0
 20
0.0
 30
0.0
  9
$PUCSXDIR
 10
1.0
 20
0.0
 30
0.0
  9
$PUCSYDIR
 10
0.0
 20
1.0
 30
0.0
  9
$USERI1
 70
     0
  9
$USERI2
 70
     0
  9
$USERI3
 70
     0
  9
$USERI4
 70
     0
  9
$USERI5
 70
     0
  9
$USERR1
 40
0.0
  9
$USERR2
 40
0.0
  9
$USERR3
 40
0.0
  9
$USERR4
 40
0.0
  9
$USERR5
 40
0.0
  9
$WORLDVIEW
 70
     1
  9
$SHADEDGE
 70
     3
  9
$SHADEDIF
 70
    70
  9
$TILEMODE
 70
     1
  9
$MAXACTVP
 70
    16
  9
$PLIMCHECK
 70
     0
  9
$PEXTMIN
 10
-1.452248
 20
-0.437698
 30
0.0
  9
$PEXTMAX
 10
12.749749
 20
8.310198
 30
0.0
  9
$PLIMMIN
 10
0.0
 20
0.0
  9
$PLIMMAX
 10
12.0
 20
9.0
  9
$UNITMODE
 70
     0
  9
$VISRETAIN
 70
     0
  9
$PLINEGEN
 70
     0
  9
$PSLTSCALE
 70
     0
  0
ENDSEC
  0
SECTION
  2
TABLES
  0
TABLE
  2
VPORT
 70
     2
  0
VPORT
  2
*ACTIVE
 70
     0
 10
0.0
 20
0.0
 11
1.0
 21
1.0
 12
-149.131655
 22
116.08223
 13
0.0
 23
0.0
 14
1.0
 24
1.0
 15
10.0
 25
10.0
 16
0.0
 26
0.0
 36
1.0
 17
0.0
 27
0.0
 37
0.0
 40
177.010063
 41
1.56
 42
50.0
 43
0.0
 44
0.0
 50
0.0
 51
0.0
 71
     0
 72
   100
 73
     1
 74
     0
 75
     0
 76
     0
 77
     0
 78
     0
  0
ENDTAB
  0
TABLE
  2
LTYPE
 70
     2
  0
LTYPE
  2
CONTINUOUS
 70
     0
  3
Solid line
 72
    65
 73
     0
 40
0.0
  0
LTYPE
  2
AXES2
 70
     0
  3
___ _ ___ _ ___ _ ___ _ ___ _ ___ _ ___ _ ___ _
 72
    65
 73
     4
 40
1.125
 49
0.75
 49
-0.125
 49
0.125
 49
-0.125
  0
ENDTAB
  0
TABLE
  2
LAYER
 70
     5
  0
LAYER
  2
0
 70
     0
 62
   255
  6
CONTINUOUS
  0
LAYER
  2
COTATION1
 70
     0
 62
     2
  6
CONTINUOUS
  0
LAYER
  2
AXE
 70
     0
 62
    80
  6
AXES2
  0
LAYER
  2
DEFPOINTS
 70
     0
 62
     7
  6
CONTINUOUS
  0
LAYER
  2
ALPHA
 70
     0
 62
   254
  6
CONTINUOUS
  0
ENDTAB
  0
TABLE
  2
STYLE
 70
     2
  0
STYLE
  2
ROMANS
 70
     0
 40
0.0
 41
1.0
 50
0.0
 71
     0
 42
6.0
  3
romans
  4

  0
STYLE
  2
STANDARD
 70
     0
 40
0.2
 41
1.0
 50
0.0
 71
     0
 42
0.2
  3
txt
  4

  0
ENDTAB
  0
TABLE
  2
VIEW
 70
     0
  0
ENDTAB
  0
TABLE
  2
UCS
 70
     0
  0
ENDTAB
  0
TABLE
  2
APPID
 70
     1
  0
APPID
  2
ACAD
 70
     0
  0
ENDTAB
  0
TABLE
  2
DIMSTYLE
 70
     1
  0
DIMSTYLE
  2
SC_DEFAUT
 70
     0
  3

  4

  5
OPEN30
  6

  7

 40
1.0
 41
5.0
 42
2.0
 43
0.38
 44
2.5
 45
0.0
 46
0.0
 47
0.0
 48
0.0
140
2.5
141
0.0
142
0.0
143
25.4
144
1.0
145
0.0
146
1.0
147
2.0
 71
     0
 72
     0
 73
     1
 74
     1
 75
     0
 76
     0
 77
     1
 78
    12
170
     0
171
     2
172
     0
173
     0
174
     0
175
     0
176
     0
177
     0
178
     0
  0
ENDTAB
  0
ENDSEC
  0
SECTION
  2
BLOCKS
  0
BLOCK
  8
0
  2
$MODEL_SPACE
 70
     0
 10
0.0
 20
0.0
 30
0.0
  3
$MODEL_SPACE
  1

  0
ENDBLK
  5
116DE
  8
0
  0
BLOCK
 67
     1
  8
0
  2
$PAPER_SPACE
 70
     0
 10
0.0
 20
0.0
 30
0.0
  3
$PAPER_SPACE
  1

  0
ENDBLK
  5
116DC
 67
     1
  8
0
  0
BLOCK
  8
0
  2
COTE
 70
     0
 10
0.0
 20
0.0
 30
0.0
  3
COTE
  1

  0
ENDBLK
  5
F
  8
0
  0
BLOCK
  8
0
  2
FOND
 70
     0
 10
0.0
 20
0.0
 30
0.0
  3
FOND
  1

  0
ENDBLK
  5
75
  8
0
  0
BLOCK
  8
0
  2
_OPEN30
 70
     0
 10
0.0
 20
0.0
 30
0.0
  3
_OPEN30
  1

  0
LINE
  5
4B05
  8
COTATION1
 62
     0
 10
-1.0
 20
0.267949
 30
0.0
 11
0.0
 21
0.0
 31
0.0
1001
ACAD
1000
RTLwPs
1070
   158
  0
LINE
  5
4B06
  8
COTATION1
 62
     0
 10
0.0
 20
0.0
 30
0.0
 11
-1.0
 21
-0.267949
 31
0.0
1001
ACAD
1000
RTLwPs
1070
   158
  0
LINE
  5
4B07
  8
COTATION1
 62
     0
 10
0.0
 20
0.0
 30
0.0
 11
-1.0
 21
0.0
 31
0.0
1001
ACAD
1000
RTLwPs
1070
   158
  0
ENDBLK
  5
4B09
  8
0
  0
BLOCK
  8
0
  2
*D3
 70
     1
 10
0.0
 20
0.0
 30
0.0
  3
*D3
  1

  0
LINE
  5
10429
  8
COTATION1
 62
     0
 10
-127.302225
 20
106.832779
 30
0.0
 11
-108.181894
 21
106.832779
 31
0.0
1001
ACAD
1000
RTLwPs
1070
   158
  0
LINE
  5
1042A
  8
COTATION1
 62
     0
 10
-133.681894
 20
66.832779
 30
0.0
 11
-108.181894
 21
66.832779
 31
0.0
1001
ACAD
1000
RTLwPs
1070
   158
  0
LINE
  5
1042B
  8
COTATION1
 62
     0
 10
-110.681894
 20
101.832779
 30
0.0
 11
-110.681894
 21
90.082779
 31
0.0
1001
ACAD
1000
RTLwPs
1070
   158
  0
LINE
  5
1042C
  8
COTATION1
 62
     0
 10
-110.681894
 20
71.832779
 30
0.0
 11
-110.681894
 21
83.582779
 31
0.0
1001
ACAD
1000
RTLwPs
1070
   158
  0
INSERT
  5
1042D
  8
COTATION1
 62
     0
  2
_OPEN30
 10
-110.681894
 20
106.832779
 30
0.0
 41
5.0
 42
5.0
 43
5.0
 50
90.0
1001
ACAD
1000
RTLwPs
1070
   158
  0
INSERT
  5
1042E
  8
COTATION1
 62
     0
  2
_OPEN30
 10
-110.681894
 20
66.832779
 30
0.0
 41
5.0
 42
5.0
 43
5.0
 50
270.0
1001
ACAD
1000
RTLwPs
1070
   158
  0
TEXT
  5
1042F
  8
COTATION1
 62
     0
 10
-113.062846
 20
85.582779
 30
0.0
 40
2.5
  1
40
1001
ACAD
1000
MTEXTBEGIN
1070
    73
1070
     1
1070
    44
1040
1.0
1070
    74
1070
     0
1000
MTEXTEND
1000
MTEXTBEGIN
1070
    73
1070
     1
1070
    44
1040
1.0
1070
    74
1070
     0
1000
MTEXTEND
1000
MTEXTBEGIN
1070
    73
1070
     1
1070
    44
1040
1.0
1070
    74
1070
     0
1000
MTEXTEND
1000
MTEXTBEGIN
1070
    73
1070
     1
1070
    44
1040
1.0
1070
    74
1070
     0
1000
MTEXTEND
1000
MTEXTBEGIN
1070
    73
1070
     1
1070
    44
1040
1.0
1070
    74
1070
     0
1000
MTEXTEND
  0
POINT
  5
10430
  8
DEFPOINTS
 62
     0
 10
-129.302225
 20
106.832779
 30
0.0
  0
POINT
  5
10431
  8
DEFPOINTS
 62
     0
 10
-135.681894
 20
66.832779
 30
0.0
  0
POINT
  5
10432
  8
DEFPOINTS
 62
     0
 10
-110.681894
 20
66.832779
 30
0.0
  0
ENDBLK
  5
FFC2
  8
0
  0
BLOCK
  8
0
  2
*D4
 70
     1
 10
0.0
 20
0.0
 30
0.0
  3
*D4
  1

  0
LINE
  5
1043C
  8
COTATION1
 62
     0
 10
-155.802225
 20
98.332779
 30
0.0
 11
-155.802225
 21
38.332779
 31
0.0
1001
ACAD
1000
RTLwPs
1070
   158
  0
LINE
  5
1043D
  8
COTATION1
 62
     0
 10
-135.802225
 20
98.332779
 30
0.0
 11
-135.802225
 21
38.332779
 31
0.0
1001
ACAD
1000
RTLwPs
1070
   158
  0
LINE
  5
1043E
  8
COTATION1
 62
     0
 10
-150.802225
 20
40.832779
 30
0.0
 11
-140.802225
 21
40.832779
 31
0.0
1001
ACAD
1000
RTLwPs
1070
   158
  0
INSERT
  5
1043F
  8
COTATION1
 62
     0
  2
_OPEN30
 10
-155.802225
 20
40.832779
 30
0.0
 41
5.0
 42
5.0
 43
5.0
 50
180.0
1001
ACAD
1000
RTLwPs
1070
   158
  0
INSERT
  5
10440
  8
COTATION1
 62
     0
  2
_OPEN30
 10
-135.802225
 20
40.832779
 30
0.0
 41
5.0
 42
5.0
 43
5.0
1001
ACAD
1000
RTLwPs
1070
   158
  0
TEXT
  5
10441
  8
COTATION1
 62
     0
 10
-148.183177
 20
42.832779
 30
0.0
 40
2.5
  1
20
1001
ACAD
1000
MTEXTBEGIN
1070
    73
1070
     1
1070
    44
1040
1.0
1070
    74
1070
     0
1000
MTEXTEND
1000
MTEXTBEGIN
1070
    73
1070
     1
1070
    44
1040
1.0
1070
    74
1070
     0
1000
MTEXTEND
1000
MTEXTBEGIN
1070
    73
1070
     1
1070
    44
1040
1.0
1070
    74
1070
     0
1000
MTEXTEND
1000
MTEXTBEGIN
1070
    73
1070
     1
1070
    44
1040
1.0
1070
    74
1070
     0
1000
MTEXTEND
1000
MTEXTBEGIN
1070
    73
1070
     1
1070
    44
1040
1.0
1070
    74
1070
     0
1000
MTEXTEND
  0
POINT
  5
10442
  8
DEFPOINTS
 62
     0
 10
-155.802225
 20
100.332779
 30
0.0
  0
POINT
  5
10443
  8
DEFPOINTS
 62
     0
 10
-135.802225
 20
100.332779
 30
0.0
  0
POINT
  5
10444
  8
DEFPOINTS
 62
     0
 10
-135.802225
 20
40.832779
 30
0.0
  0
ENDBLK
  5
FFCE
  8
0
  0
BLOCK
  8
0
  2
*D5
 70
     1
 10
0.0
 20
0.0
 30
0.0
  3
*D5
  1

  0
LINE
  5
10300
  8
COTATION1
 62
     0
 10
-160.681894
 20
64.832779
 30
0.0
 11
-160.681894
 21
28.332779
 31
0.0
1001
ACAD
1000
RTLwPs
1070
   158
  0
LINE
  5
10301
  8
COTATION1
 62
     0
 10
-130.681894
 20
69.832779
 30
0.0
 11
-130.681894
 21
28.332779
 31
0.0
1001
ACAD
1000
RTLwPs
1070
   158
  0
LINE
  5
10302
  8
COTATION1
 62
     0
 10
-155.681894
 20
30.832779
 30
0.0
 11
-135.681894
 21
30.832779
 31
0.0
1001
ACAD
1000
RTLwPs
1070
   158
  0
INSERT
  5
10303
  8
COTATION1
 62
     0
  2
_OPEN30
 10
-160.681894
 20
30.832779
 30
0.0
 41
5.0
 42
5.0
 43
5.0
 50
180.0
1001
ACAD
1000
RTLwPs
1070
   158
  0
INSERT
  5
10304
  8
COTATION1
 62
     0
  2
_OPEN30
 10
-130.681894
 20
30.832779
 30
0.0
 41
5.0
 42
5.0
 43
5.0
1001
ACAD
1000
RTLwPs
1070
   158
  0
TEXT
  5
10305
  8
COTATION1
 62
     0
 10
-148.062846
 20
32.832779
 30
0.0
 40
2.5
  1
30
1001
ACAD
1000
MTEXTBEGIN
1070
    73
1070
     1
1070
    44
1040
1.0
1070
    74
1070
     0
1000
MTEXTEND
1000
MTEXTBEGIN
1070
    73
1070
     1
1070
    44
1040
1.0
1070
    74
1070
     0
1000
MTEXTEND
1000
MTEXTBEGIN
1070
    73
1070
     1
1070
    44
1040
1.0
1070
    74
1070
     0
1000
MTEXTEND
1000
MTEXTBEGIN
1070
    73
1070
     1
1070
    44
1040
1.0
1070
    74
1070
     0
1000
MTEXTEND
1000
MTEXTBEGIN
1070
    73
1070
     1
1070
    44
1040
1.0
1070
    74
1070
     0
1000
MTEXTEND
  0
POINT
  5
10306
  8
DEFPOINTS
 62
     0
 10
-160.681894
 20
66.832779
 30
0.0
  0
POINT
  5
10307
  8
DEFPOINTS
 62
     0
 10
-130.681894
 20
71.832779
 30
0.0
  0
POINT
  5
10308
  8
DEFPOINTS
 62
     0
 10
-130.681894
 20
30.832779
 30
0.0
  0
ENDBLK
  5
FFDA
  8
0
  0
BLOCK
  8
0
  2
*D6
 70
     1
 10
0.0
 20
0.0
 30
0.0
  3
*D6
  1

  0
LINE
  5
1036D
  8
COTATION1
 62
     0
 10
-174.090626
 20
116.592548
 30
0.0
 11
-164.590626
 21
116.592548
 31
0.0
1001
ACAD
1000
RTLwPs
1070
   158
  0
LINE
  5
1036E
  8
COTATION1
 62
     0
 10
-164.590626
 20
116.592548
 30
0.0
 11
-160.553251
 21
112.108928
 31
0.0
1001
ACAD
1000
RTLwPs
1070
   158
  0
TEXT
  5
1036F
  8
COTATION1
 62
     0
 10
-174.328721
 20
118.592548
 30
0.0
 40
2.5
  1
%%c4.2
1001
ACAD
1000
MTEXTBEGIN
1070
    73
1070
     1
1070
    44
1040
1.0
1070
    74
1070
     0
1000
MTEXTEND
1000
MTEXTBEGIN
1070
    73
1070
     1
1070
    44
1040
1.0
1070
    74
1070
     0
1000
MTEXTEND
1000
MTEXTBEGIN
1070
    73
1070
     1
1070
    44
1040
1.0
1070
    74
1070
     0
1000
MTEXTEND
1000
MTEXTBEGIN
1070
    73
1070
     1
1070
    44
1040
1.0
1070
    74
1070
     0
1000
MTEXTEND
1000
MTEXTBEGIN
1070
    73
1070
     1
1070
    44
1040
1.0
1070
    74
1070
     0
1000
MTEXTEND
  0
INSERT
  5
10370
  8
COTATION1
 62
     0
  2
_OPEN30
 10
-157.207458
 20
108.39333
 30
0.0
 41
5.0
 42
5.0
 43
5.0
 50
312.002156
1001
ACAD
1000
RTLwPs
1070
   158
  0
POINT
  5
10371
  8
DEFPOINTS
 62
     0
 10
-157.207458
 20
108.39333
 30
0.0
  0
POINT
  5
10372
  8
DEFPOINTS
 62
     0
 10
-154.396992
 20
105.272227
 30
0.0
  0
ENDBLK
  5
10363
  8
0
  0
BLOCK
  8
0
  2
*D7
 70
     1
 10
0.0
 20
0.0
 30
0.0
  3
*D7
  1

  0
LINE
  5
10379
  8
COTATION1
 62
     0
 10
-183.827086
 20
93.482114
 30
0.0
 11
-177.898515
 21
93.482114
 31
0.0
1001
ACAD
1000
RTLwPs
1070
   158
  0
LINE
  5
1037A
  8
COTATION1
 62
     0
 10
-177.898515
 20
93.482114
 30
0.0
 11
-163.505338
 21
102.178528
 31
0.0
1001
ACAD
1000
RTLwPs
1070
   158
  0
TEXT
  5
1037B
  8
COTATION1
 62
     0
 10
-184.065182
 20
95.482114
 30
0.0
 40
2.5
  1
%%c8
1001
ACAD
1000
MTEXTBEGIN
1070
    73
1070
     1
1070
    44
1040
1.0
1070
    74
1070
     0
1000
MTEXTEND
1000
MTEXTBEGIN
1070
    73
1070
     1
1070
    44
1040
1.0
1070
    74
1070
     0
1000
MTEXTEND
1000
MTEXTBEGIN
1070
    73
1070
     1
1070
    44
1040
1.0
1070
    74
1070
     0
1000
MTEXTEND
1000
MTEXTBEGIN
1070
    73
1070
     1
1070
    44
1040
1.0
1070
    74
1070
     0
1000
MTEXTEND
1000
MTEXTBEGIN
1070
    73
1070
     1
1070
    44
1040
1.0
1070
    74
1070
     0
1000
MTEXTEND
  0
INSERT
  5
1037C
  8
COTATION1
 62
     0
  2
_OPEN30
 10
-159.225831
 20
104.764223
 30
0.0
 41
5.0
 42
5.0
 43
5.0
 50
31.140535
1001
ACAD
1000
RTLwPs
1070
   158
  0
POINT
  5
1037D
  8
DEFPOINTS
 62
     0
 10
-159.225831
 20
104.764223
 30
0.0
  0
POINT
  5
1037E
  8
DEFPOINTS
 62
     0
 10
-152.378619
 20
108.901335
 30
0.0
  0
ENDBLK
  5
1036C
  8
0
  0
BLOCK
  8
0
  2
*D8
 70
     1
 10
0.0
 20
0.0
 30
0.0
  3
*D8
  1

  0
LINE
  5
11565
  8
COTATION1
 62
     0
 10
-147.802225
 20
184.332779
 30
0.0
 11
-200.054698
 21
184.332779
 31
0.0
1001
ACAD
1000
RTLwPs
1070
   158
  0
LINE
  5
11566
  8
COTATION1
 62
     0
 10
-164.302225
 20
106.832779
 30
0.0
 11
-200.054698
 21
106.832779
 31
0.0
1001
ACAD
1000
RTLwPs
1070
   158
  0
LINE
  5
11567
  8
COTATION1
 62
     0
 10
-197.554698
 20
179.332779
 30
0.0
 11
-197.554698
 21
148.832779
 31
0.0
1001
ACAD
1000
RTLwPs
1070
   158
  0
LINE
  5
11568
  8
COTATION1
 62
     0
 10
-197.554698
 20
111.832779
 30
0.0
 11
-197.554698
 21
142.332779
 31
0.0
1001
ACAD
1000
RTLwPs
1070
   158
  0
INSERT
  5
11569
  8
COTATION1
 62
     0
  2
_OPEN30
 10
-197.554698
 20
184.332779
 30
0.0
 41
5.0
 42
5.0
 43
5.0
 50
90.0
1001
ACAD
1000
RTLwPs
1070
   158
  0
INSERT
  5
1156A
  8
COTATION1
 62
     0
  2
_OPEN30
 10
-197.554698
 20
106.832779
 30
0.0
 41
5.0
 42
5.0
 43
5.0
 50
270.0
1001
ACAD
1000
RTLwPs
1070
   158
  0
TEXT
  5
1156B
  8
COTATION1
 62
     0
 10
-205.292793
 20
144.332779
 30
0.0
 40
2.5
  1
53...103
1001
ACAD
1000
MTEXTBEGIN
1070
    73
1070
     1
1070
    44
1040
1.0
1070
    74
1070
     0
1000
MTEXTEND
  0
POINT
  5
1156C
  8
DEFPOINTS
 62
     0
 10
-145.802225
 20
184.332779
 30
0.0
  0
POINT
  5
1156D
  8
DEFPOINTS
 62
     0
 10
-162.302225
 20
106.832779
 30
0.0
  0
POINT
  5
1156E
  8
DEFPOINTS
 62
     0
 10
-197.554698
 20
106.832779
 30
0.0
  0
ENDBLK
  5
11535
  8
0
  0
BLOCK
  8
0
  2
*D9
 70
     1
 10
0.0
 20
0.0
 30
0.0
  3
*D9
  1

  0
LINE
  5
115DC
  8
COTATION1
 62
     0
 10
-143.802225
 20
184.332779
 30
0.0
 11
-98.181894
 21
184.332779
 31
0.0
1001
ACAD
1000
RTLwPs
1070
   158
  0
LINE
  5
115DD
  8
COTATION1
 62
     0
 10
-133.681894
 20
66.832779
 30
0.0
 11
-98.181894
 21
66.832779
 31
0.0
1001
ACAD
1000
RTLwPs
1070
   158
  0
LINE
  5
115DE
  8
COTATION1
 62
     0
 10
-100.681894
 20
179.332779
 30
0.0
 11
-100.681894
 21
128.832779
 31
0.0
1001
ACAD
1000
RTLwPs
1070
   158
  0
LINE
  5
115DF
  8
COTATION1
 62
     0
 10
-100.681894
 20
71.832779
 30
0.0
 11
-100.681894
 21
122.332779
 31
0.0
1001
ACAD
1000
RTLwPs
1070
   158
  0
INSERT
  5
115E0
  8
COTATION1
 62
     0
  2
_OPEN30
 10
-100.681894
 20
184.332779
 30
0.0
 41
5.0
 42
5.0
 43
5.0
 50
90.0
1001
ACAD
1000
RTLwPs
1070
   158
  0
INSERT
  5
115E1
  8
COTATION1
 62
     0
  2
_OPEN30
 10
-100.681894
 20
66.832779
 30
0.0
 41
5.0
 42
5.0
 43
5.0
 50
270.0
1001
ACAD
1000
RTLwPs
1070
   158
  0
TEXT
  5
115E2
  8
COTATION1
 62
     0
 10
-108.419989
 20
124.332779
 30
0.0
 40
2.5
  1
93...143
1001
ACAD
1000
MTEXTBEGIN
1070
    73
1070
     1
1070
    44
1040
1.0
1070
    74
1070
     0
1000
MTEXTEND
  0
POINT
  5
115E3
  8
DEFPOINTS
 62
     0
 10
-145.802225
 20
184.332779
 30
0.0
  0
POINT
  5
115E4
  8
DEFPOINTS
 62
     0
 10
-135.681894
 20
66.832779
 30
0.0
  0
POINT
  5
115E5
  8
DEFPOINTS
 62
     0
 10
-100.681894
 20
66.832779
 30
0.0
  0
ENDBLK
  5
11542
  8
0
  0
BLOCK
  8
0
  2
*D10
 70
     1
 10
0.0
 20
0.0
 30
0.0
  3
*D10
  1

  0
LINE
  5
11579
  8
COTATION1
 62
     0
 10
-118.853616
 20
166.102223
 30
0.0
 11
-127.16314
 21
166.102223
 31
0.0
1001
ACAD
1000
RTLwPs
1070
   158
  0
LINE
  5
1157A
  8
COTATION1
 62
     0
 10
-127.16314
 20
166.102223
 30
0.0
 11
-134.406016
 21
170.077667
 31
0.0
1001
ACAD
1000
RTLwPs
1070
   158
  0
TEXT
  5
1157B
  8
COTATION1
 62
     0
 10
-125.401235
 20
168.102223
 30
0.0
 40
2.5
  1
%%c16
1001
ACAD
1000
MTEXTBEGIN
1070
    73
1070
     1
1070
    44
1040
1.0
1070
    74
1070
     0
1000
MTEXTEND
  0
INSERT
  5
1157C
  8
COTATION1
 62
     0
  2
_OPEN30
 10
-138.789173
 20
172.483479
 30
0.0
 41
5.0
 42
5.0
 43
5.0
 50
151.238651
1001
ACAD
1000
RTLwPs
1070
   158
  0
POINT
  5
1157D
  8
DEFPOINTS
 62
     0
 10
-138.789173
 20
172.483479
 30
0.0
  0
POINT
  5
1157E
  8
DEFPOINTS
 62
     0
 10
-152.815277
 20
180.182078
 30
0.0
  0
ENDBLK
  5
1154B
  8
0
  0
BLOCK
  8
0
  2
*D11
 70
     1
 10
0.0
 20
0.0
 30
0.0
  3
*D11
  1

  0
LINE
  5
1157F
  8
COTATION1
 62
     0
 10
-147.802225
 20
184.332779
 30
0.0
 11
-183.99656
 21
184.332779
 31
0.0
1001
ACAD
1000
RTLwPs
1070
   158
  0
LINE
  5
11580
  8
COTATION1
 62
     0
 10
-158.802225
 20
126.332779
 30
0.0
 11
-183.99656
 21
126.332779
 31
0.0
1001
ACAD
1000
RTLwPs
1070
   158
  0
LINE
  5
11581
  8
COTATION1
 62
     0
 10
-181.49656
 20
179.332779
 30
0.0
 11
-181.49656
 21
161.843698
 31
0.0
1001
ACAD
1000
RTLwPs
1070
   158
  0
LINE
  5
11582
  8
COTATION1
 62
     0
 10
-181.49656
 20
131.332779
 30
0.0
 11
-181.49656
 21
155.343698
 31
0.0
1001
ACAD
1000
RTLwPs
1070
   158
  0
INSERT
  5
11583
  8
COTATION1
 62
     0
  2
_OPEN30
 10
-181.49656
 20
184.332779
 30
0.0
 41
5.0
 42
5.0
 43
5.0
 50
90.0
1001
ACAD
1000
RTLwPs
1070
   158
  0
INSERT
  5
11584
  8
COTATION1
 62
     0
  2
_OPEN30
 10
-181.49656
 20
126.332779
 30
0.0
 41
5.0
 42
5.0
 43
5.0
 50
270.0
1001
ACAD
1000
RTLwPs
1070
   158
  0
TEXT
  5
11585
  8
COTATION1
 62
     0
 10
-191.615607
 20
157.343698
 30
0.0
 40
2.5
  1
33.5...83.5
1001
ACAD
1000
MTEXTBEGIN
1070
    73
1070
     1
1070
    44
1040
1.0
1070
    74
1070
     0
1000
MTEXTEND
  0
POINT
  5
11586
  8
DEFPOINTS
 62
     0
 10
-145.802225
 20
184.332779
 30
0.0
  0
POINT
  5
11587
  8
DEFPOINTS
 62
     0
 10
-156.802225
 20
126.332779
 30
0.0
  0
POINT
  5
11588
  8
DEFPOINTS
 62
     0
 10
-181.49656
 20
126.332779
 30
0.0
  0
ENDBLK
  5
11558
  8
0
  0
BLOCK
  8
0
  2
*D12
 70
     1
 10
0.0
 20
0.0
 30
0.0
  3
*D12
  1

  0
LINE
  5
11589
  8
COTATION1
 62
     0
 10
-153.802225
 20
171.89923
 30
0.0
 11
-153.802225
 21
201.832779
 31
0.0
1001
ACAD
1000
RTLwPs
1070
   158
  0
LINE
  5
1158A
  8
COTATION1
 62
     0
 10
-137.802225
 20
172.332779
 30
0.0
 11
-137.802225
 21
201.832779
 31
0.0
1001
ACAD
1000
RTLwPs
1070
   158
  0
LINE
  5
1158B
  8
COTATION1
 62
     0
 10
-148.802225
 20
199.332779
 30
0.0
 11
-142.802225
 21
199.332779
 31
0.0
1001
ACAD
1000
RTLwPs
1070
   158
  0
INSERT
  5
1158C
  8
COTATION1
 62
     0
  2
_OPEN30
 10
-153.802225
 20
199.332779
 30
0.0
 41
5.0
 42
5.0
 43
5.0
 50
180.0
1001
ACAD
1000
RTLwPs
1070
   158
  0
INSERT
  5
1158D
  8
COTATION1
 62
     0
  2
_OPEN30
 10
-137.802225
 20
199.332779
 30
0.0
 41
5.0
 42
5.0
 43
5.0
1001
ACAD
1000
RTLwPs
1070
   158
  0
TEXT
  5
1158E
  8
COTATION1
 62
     0
 10
-148.361749
 20
201.332779
 30
0.0
 40
2.5
  1
16
1001
ACAD
1000
MTEXTBEGIN
1070
    73
1070
     1
1070
    44
1040
1.0
1070
    74
1070
     0
1000
MTEXTEND
  0
POINT
  5
1158F
  8
DEFPOINTS
 62
     0
 10
-153.802225
 20
169.89923
 30
0.0
  0
POINT
  5
11590
  8
DEFPOINTS
 62
     0
 10
-137.802225
 20
170.332779
 30
0.0
  0
POINT
  5
11591
  8
DEFPOINTS
 62
     0
 10
-137.802225
 20
199.332779
 30
0.0
  0
ENDBLK
  5
11564
  8
0
  0
ENDSEC
  0
SECTION
  2
ENTITIES
  0
INSERT
  5
A
  8
0
  2
COTE
 10
0.0
 20
0.0
 30
0.0
  0
INSERT
  5
17
  8
0
  2
COTE
 10
284.010391
 20
6.373258
 30
0.0
  0
INSERT
  5
72
  8
0
  2
FOND
 10
0.0
 20
0.0
 30
0.0
  0
LINE
  5
FF41
  8
AXE
 10
-145.802225
 20
189.332779
 30
0.0
 11
-145.802225
 21
50.832779
 31
0.0
  0
DIMENSION
  5
FF43
  8
COTATION1
  2
*D3
 10
-110.681894
 20
66.832779
 30
0.0
 11
-110.681894
 21
86.832779
 31
0.0
 13
-129.302225
 23
106.832779
 33
0.0
 14
-135.681894
 24
66.832779
 34
0.0
 50
90.0
  0
LINE
  5
FF44
  8
AXE
 10
-165.681894
 20
91.832779
 30
0.0
 11
-118.181894
 21
91.832779
 31
0.0
  0
ARC
  5
FF45
  8
ALPHA
 10
-149.069586
 20
53.014506
 30
0.0
 40
26.27482
 50
17.344588
 51
45.588038
  0
ARC
  5
FF46
  8
ALPHA
 10
-154.019333
 20
48.064759
 30
0.0
 40
26.27482
 50
17.344588
 51
45.586396
  0
LINE
  5
FF47
  8
AXE
 10
-122.928845
 20
61.908158
 30
0.0
 11
-129.999913
 21
54.83709
 31
0.0
  0
DIMENSION
  5
FF48
  8
COTATION1
  2
*D4
 10
-135.802225
 20
40.832779
 30
0.0
 11
-145.802225
 21
44.082779
 31
0.0
 13
-155.802225
 23
100.332779
 33
0.0
 14
-135.802225
 24
100.332779
 34
0.0
  0
LINE
  5
FF49
  8
ALPHA
 10
-130.681894
 20
71.832779
 30
0.0
 11
-130.681894
 21
114.832779
 31
0.0
  0
LINE
  5
FF4A
  8
ALPHA
 10
-160.681894
 20
66.832779
 30
0.0
 11
-160.681894
 21
114.832779
 31
0.0
  0
DIMENSION
  5
FF4B
  8
COTATION1
  2
*D5
 10
-130.681894
 20
30.832779
 30
0.0
 11
-145.681894
 21
34.082779
 31
0.0
 13
-160.681894
 23
66.832779
 33
0.0
 14
-130.681894
 24
71.832779
 34
0.0
  0
LINE
  5
FF4C
  8
ALPHA
 10
-149.302225
 20
71.132779
 30
0.0
 11
-145.802225
 21
71.132779
 31
0.0
  0
LINE
  5
FF4D
  8
ALPHA
 10
-149.302225
 20
69.132779
 30
0.0
 11
-145.802225
 21
69.132779
 31
0.0
  0
LINE
  5
FF4E
  8
ALPHA
 10
-160.681894
 20
66.832779
 30
0.0
 11
-135.681894
 21
66.832779
 31
0.0
  0
TEXT
  5
FF4F
  8
AXE
 10
-153.278415
 20
50.832779
 30
0.0
 40
8.0
  1
Y
 72
     2
 11
-146.802225
 21
50.832779
 31
0.0
  0
ARC
  5
FF50
  8
ALPHA
 10
-149.302225
 20
70.132779
 30
0.0
 40
1.0
 50
90.0
 51
270.0
  0
ARC
  5
FF51
  8
ALPHA
 10
-142.302225
 20
70.132779
 30
0.0
 40
1.0
 50
270.0
 51
90.0
  0
LINE
  5
FF52
  8
ALPHA
 10
-142.302225
 20
71.132779
 30
0.0
 11
-145.802225
 21
71.132779
 31
0.0
  0
LINE
  5
FF53
  8
ALPHA
 10
-142.302225
 20
69.132779
 30
0.0
 11
-145.802225
 21
69.132779
 31
0.0
  0
ARC
  5
FF54
  8
ALPHA
 10
-135.681894
 20
71.832779
 30
0.0
 40
5.0
 50
270.0
 51
0.0
  0
ARC
  5
FF58
  8
ALPHA
 10
-145.681894
 20
59.586399
 30
0.0
 40
57.246507
 50
74.809764
 51
82.088431
  0
TEXT
  5
FF7C
  8
AXE
 10
-124.658084
 20
92.832779
 30
0.0
 40
8.0
  1
X
 72
     2
 11
-118.181894
 21
92.832779
 31
0.0
  0
DIMENSION
  5
10351
  8
COTATION1
  2
*D6
 10
-154.396992
 20
105.272227
 30
0.0
 11
-170.340626
 21
116.592548
 31
0.0
 70
   131
 15
-157.207458
 25
108.39333
 35
0.0
 40
0.0
  0
ARC
  5
10352
  8
ALPHA
 10
-155.802225
 20
106.832779
 30
0.0
 40
4.0
 50
60.0
 51
300.0
  0
CIRCLE
  5
10353
  8
ALPHA
 10
-155.802225
 20
106.832779
 30
0.0
 40
2.1
  0
LINE
  5
10354
  8
AXE
 10
-162.302225
 20
106.832779
 30
0.0
 11
-149.302225
 21
106.832779
 31
0.0
  0
ARC
  5
10355
  8
ALPHA
 10
-135.802225
 20
106.832779
 30
0.0
 40
4.0
 50
240.0
 51
120.0
  0
CIRCLE
  5
10356
  8
ALPHA
 10
-135.802225
 20
106.832779
 30
0.0
 40
2.1
  0
LINE
  5
10357
  8
AXE
 10
-135.802225
 20
100.332779
 30
0.0
 11
-135.802225
 21
113.332779
 31
0.0
  0
LINE
  5
10358
  8
AXE
 10
-129.302225
 20
106.832779
 30
0.0
 11
-142.302225
 21
106.832779
 31
0.0
  0
LINE
  5
10359
  8
AXE
 10
-155.802225
 20
100.332779
 30
0.0
 11
-155.802225
 21
113.332779
 31
0.0
  0
DIMENSION
  5
1035A
  8
COTATION1
  2
*D7
 10
-152.378619
 20
108.901335
 30
0.0
 11
-181.862801
 21
93.482114
 31
0.0
 70
   131
 15
-159.225831
 25
104.764223
 35
0.0
 40
0.0
  0
SOLID
  5
10445
  8
COTATION1
  6
CONTINUOUS
 10
125.917883
 20
57.282386
 30
0.0
 11
127.423725
 21
62.122519
 31
0.0
 12
124.429507
 22
58.032396
 32
0.0
 13
124.429507
 23
58.032396
 33
0.0
210
0.0
220
0.0
230
-1.0
1001
ACAD
1000
DSTYLE
1002
{
1070
     5
1000
OPEN30
1070
   342
1005
EC370D0300004B04
1002
}
  0
POLYLINE
  5
11697
  8
COTATION1
 66
     1
 10
0.0
 20
0.0
 30
0.0
 70
   128
1001
ACAD
1000
R13OBJECT
1002
{
1005
10445
1002
}
  0
VERTEX
  5
116F0
  8
COTATION1
 10
-125.173695
 20
57.657391
 30
0.0
  0
VERTEX
  5
116F1
  8
COTATION1
 10
-121.475411
 20
50.318238
 30
0.0
  0
VERTEX
  5
116F2
  8
COTATION1
 10
-106.975411
 20
50.318238
 30
0.0
  0
SEQEND
  5
116F3
  8
COTATION1
  0
TEXT
  5
10446
  8
COTATION1
 10
-115.741606
 20
52.15522
 30
0.0
 40
2.5
  1
%%c
1001
ACAD
1000
MTEXTBEGIN
1070
    73
1070
     1
1070
    44
1040
1.0
1070
    74
1070
     0
1000
MTEXTEND
1000
MTEXTBEGIN
1070
    73
1070
     1
1070
    44
1040
1.0
1070
    74
1070
     0
1000
MTEXTEND
1000
MTEXTBEGIN
1070
    73
1070
     1
1070
    44
1040
1.0
1070
    74
1070
     0
1000
MTEXTEND
1000
MTEXTBEGIN
1070
    73
1070
     1
1070
    44
1040
1.0
1070
    74
1070
     0
1000
MTEXTEND
1000
MTEXTBEGIN
1070
    73
1070
     1
1070
    44
1040
1.0
1070
    74
1070
     0
1000
MTEXTEND
  0
TEXT
  5
1169C
  8
COTATION1
 10
-113.479702
 20
52.15522
 30
0.0
 40
2.5
  1
7,5
1001
ACAD
1000
R13OBJECT
1002
{
1005
10446
1002
}
  0
POLYLINE
  5
10602
  8
ALPHA
 66
     1
 10
0.0
 20
0.0
 30
0.0
 70
   128
210
0.0
220
0.0
230
-1.0
  0
VERTEX
  5
116E4
  8
ALPHA
 10
142.356379
 20
111.949789
 30
0.0
  0
VERTEX
  5
116E5
  8
ALPHA
 10
142.945887
 20
109.586374
 30
0.0
  0
VERTEX
  5
116E6
  8
ALPHA
 10
143.720196
 20
107.017873
 30
0.0
  0
VERTEX
  5
116E7
  8
ALPHA
 10
144.674715
 20
104.955335
 30
0.0
  0
VERTEX
  5
116E8
  8
ALPHA
 10
145.218117
 20
104.336006
 30
0.0
  0
VERTEX
  5
116E9
  8
ALPHA
 10
145.80485
 20
104.109812
 30
0.0
  0
VERTEX
  5
116EA
  8
ALPHA
 10
146.391581
 20
104.336006
 30
0.0
  0
VERTEX
  5
116EB
  8
ALPHA
 10
146.934976
 20
104.955335
 30
0.0
  0
VERTEX
  5
116EC
  8
ALPHA
 10
147.88943
 20
107.017873
 30
0.0
  0
VERTEX
  5
116ED
  8
ALPHA
 10
148.663567
 20
109.586374
 30
0.0
  0
VERTEX
  5
116EE
  8
ALPHA
 10
149.252737
 20
111.949789
 30
0.0
  0
SEQEND
  5
116EF
  8
ALPHA
  0
LINE
  5
10603
  8
ALPHA
 10
-136.444467
 20
114.116382
 30
0.0
 11
-137.802225
 21
114.116382
 31
0.0
  0
LINE
  5
10604
  8
ALPHA
 10
-155.164065
 20
111.94979
 30
0.0
 11
-153.802225
 21
111.94979
 31
0.0
  0
LINE
  5
10605
  8
ALPHA
 10
-155.164065
 20
114.116382
 30
0.0
 11
-155.164065
 21
111.94979
 31
0.0
  0
LINE
  5
10606
  8
ALPHA
 10
-145.31146
 20
111.94979
 30
0.0
 11
-142.302225
 21
111.94979
 31
0.0
  0
LINE
  5
10607
  8
ALPHA
 10
-146.29649
 20
111.94979
 30
0.0
 11
-146.29649
 21
112.934817
 31
0.0
  0
LINE
  5
10608
  8
ALPHA
 10
-146.29649
 20
112.934817
 30
0.0
 11
-145.31146
 21
112.934817
 31
0.0
  0
LINE
  5
10609
  8
ALPHA
 10
-145.31146
 20
112.934817
 30
0.0
 11
-145.31146
 21
111.94979
 31
0.0
  0
LINE
  5
1060A
  8
ALPHA
 10
-136.444467
 20
111.94979
 30
0.0
 11
-136.444467
 21
114.116382
 31
0.0
  0
DIMENSION
  5
11501
  8
COTATION1
  2
*D8
 10
-197.554698
 20
106.832779
 30
0.0
 11
-197.554698
 21
145.582779
 31
0.0
 70
   128
  1
53...103
 13
-145.802225
 23
184.332779
 33
0.0
 14
-162.302225
 24
106.832779
 34
0.0
 50
90.0
  0
LINE
  5
11502
  8
ALPHA
 10
-137.802225
 20
170.332779
 30
0.0
 11
-137.802225
 21
84.332779
 31
0.0
  0
LINE
  5
11503
  8
ALPHA
 10
-153.802225
 20
170.332779
 30
0.0
 11
-153.802225
 21
84.332779
 31
0.0
  0
CIRCLE
  5
11504
  8
ALPHA
 10
-145.802225
 20
126.332779
 30
0.0
 40
6.5
  0
CIRCLE
  5
11505
  8
ALPHA
 10
-145.802225
 20
126.332779
 30
0.0
 40
5.026506
  0
LINE
  5
11506
  8
ALPHA
 10
-142.302225
 20
120.855553
 30
0.0
 11
-142.302225
 21
92.332779
 31
0.0
  0
LINE
  5
11507
  8
ALPHA
 10
-149.302225
 20
120.855553
 30
0.0
 11
-149.302225
 21
92.332779
 31
0.0
  0
LINE
  5
11508
  8
ALPHA
 10
-141.802225
 20
80.332779
 30
0.0
 11
-149.802225
 21
80.332779
 31
0.0
  0
ARC
  5
11509
  8
ALPHA
 10
-149.802225
 20
84.332779
 30
0.0
 40
4.0
 50
180.0
 51
270.0
  0
ARC
  5
1150A
  8
ALPHA
 10
-141.802225
 20
84.332779
 30
0.0
 40
4.0
 50
270.0
 51
0.0
  0
ARC
  5
1150B
  8
ALPHA
 10
-145.802225
 20
92.332779
 30
0.0
 40
3.5
 50
180.0
 51
0.0
  0
ARC
  5
1150C
  8
ALPHA
 10
-145.802225
 20
-27.984473
 30
0.0
 40
143.317251
 50
88.600621
 51
91.399379
  0
ARC
  5
1150D
  8
ALPHA
 10
-145.802225
 20
126.332779
 30
0.0
 40
10.0
 50
249.512685
 51
290.487315
  0
ARC
  5
1150E
  8
ALPHA
 10
-145.681894
 20
59.586399
 30
0.0
 40
57.246507
 50
92.997903
 51
93.625867
  0
ARC
  5
1150F
  8
ALPHA
 10
-145.681894
 20
59.586399
 30
0.0
 40
57.246507
 50
86.615454
 51
87.208683
  0
DIMENSION
  5
11510
  8
COTATION1
  2
*D11
 10
-181.49656
 20
126.332779
 30
0.0
 11
-181.49656
 21
158.593698
 31
0.0
 70
   128
  1
33.5...83.5
 13
-145.802225
 23
184.332779
 33
0.0
 14
-156.802225
 24
126.332779
 34
0.0
 50
90.0
  0
DIMENSION
  5
11511
  8
COTATION1
  2
*D10
 10
-152.815277
 20
180.182078
 30
0.0
 11
-122.008378
 21
166.102223
 31
0.0
 70
   131
 15
-138.789173
 25
172.483479
 35
0.0
 40
0.0
1001
ACAD
1000
DSTYLE
1002
{
1070
   288
1070
     1
1002
}
  0
CIRCLE
  5
11512
  8
ALPHA
 10
-145.802225
 20
176.332779
 30
0.0
 40
8.0
  0
LINE
  5
11513
  8
ALPHA
 10
-149.302225
 20
159.332779
 30
0.0
 11
-149.302225
 21
131.810004
 31
0.0
  0
LINE
  5
11514
  8
ALPHA
 10
-142.302225
 20
159.332779
 30
0.0
 11
-142.302225
 21
131.810004
 31
0.0
  0
LINE
  5
11515
  8
AXE
 10
-156.802225
 20
126.332779
 30
0.0
 11
-134.802225
 21
126.332779
 31
0.0
  0
CIRCLE
  5
11516
  8
ALPHA
 10
-145.802225
 20
126.332779
 30
0.0
 40
4.021871
  0
LINE
  5
11517
  8
ALPHA
 10
-145.802225
 20
127.328521
 30
0.0
 11
-146.904099
 21
128.42984
 31
0.0
  0
LINE
  5
11518
  8
ALPHA
 10
-146.904099
 20
128.42984
 30
0.0
 11
-147.899844
 21
127.434098
 31
0.0
  0
LINE
  5
11519
  8
ALPHA
 10
-147.899844
 20
127.434098
 30
0.0
 11
-146.796857
 21
126.332779
 31
0.0
  0
LINE
  5
1151A
  8
ALPHA
 10
-143.45567
 20
129.673966
 30
0.0
 11
-145.802225
 21
127.328521
 31
0.0
  0
LINE
  5
1151B
  8
ALPHA
 10
-144.80648
 20
126.332779
 30
0.0
 11
-142.461593
 21
128.679334
 31
0.0
  0
LINE
  5
1151C
  8
ALPHA
 10
-148.147667
 20
122.991592
 30
0.0
 11
-145.802225
 21
125.338146
 31
0.0
  0
LINE
  5
1151D
  8
ALPHA
 10
-145.802225
 20
125.338146
 30
0.0
 11
-144.700905
 21
124.235714
 31
0.0
  0
LINE
  5
1151E
  8
ALPHA
 10
-144.700905
 20
124.235714
 30
0.0
 11
-143.705164
 21
125.231459
 31
0.0
  0
LINE
  5
1151F
  8
ALPHA
 10
-146.796857
 20
126.332779
 30
0.0
 11
-149.143412
 21
123.987334
 31
0.0
  0
LINE
  5
11520
  8
ALPHA
 10
-143.705164
 20
125.231459
 30
0.0
 11
-144.80648
 21
126.332779
 31
0.0
  0
ARC
  5
11521
  8
ALPHA
 10
-145.802225
 20
126.332779
 30
0.0
 40
10.0
 50
69.512685
 51
110.487315
  0
ARC
  5
11522
  8
ALPHA
 10
-145.802225
 20
159.332779
 30
0.0
 40
3.5
 50
0.0
 51
180.0
  0
DIMENSION
  5
11523
  8
COTATION1
  2
*D12
 10
-137.802225
 20
199.332779
 30
0.0
 11
-145.802225
 21
202.582779
 31
0.0
 13
-153.802225
 23
169.89923
 33
0.0
 14
-137.802225
 24
170.332779
 34
0.0
  0
LINE
  5
11524
  8
AXE
 10
-134.802225
 20
176.332779
 30
0.0
 11
-156.802225
 21
176.332779
 31
0.0
  0
CIRCLE
  5
11525
  8
ALPHA
 10
-145.802225
 20
176.332779
 30
0.0
 40
4.0
  0
LINE
  5
11526
  8
ALPHA
 10
-152.936128
 20
172.712361
 30
0.0
 11
-153.802225
 21
170.332779
 31
0.0
  0
LINE
  5
11527
  8
ALPHA
 10
-138.668322
 20
172.712361
 30
0.0
 11
-137.802225
 21
170.332779
 31
0.0
  0
DIMENSION
  5
11528
  8
COTATION1
  2
*D9
 10
-100.681894
 20
66.832779
 30
0.0
 11
-100.681894
 21
125.582779
 31
0.0
  1
93...143
 13
-145.802225
 23
184.332779
 33
0.0
 14
-135.681894
 24
66.832779
 34
0.0
 50
90.0
  0
LINE
  5
1159C
  8
ALPHA
 10
-149.302225
 20
111.94979
 30
0.0
 11
-146.29649
 21
111.94979
 31
0.0
  0
LINE
  5
1159D
  8
ALPHA
 10
-153.802225
 20
114.116382
 30
0.0
 11
-155.164065
 21
114.116382
 31
0.0
  0
ARC
  5
1159E
  8
ALPHA
 10
-145.681894
 20
59.586399
 30
0.0
 40
57.246507
 50
98.154825
 51
105.190236
  0
LINE
  5
1159F
  8
ALPHA
 10
-142.302225
 20
114.116382
 30
0.0
 11
-149.302225
 21
114.116382
 31
0.0
  0
LINE
  5
115A0
  8
ALPHA
 10
-137.802225
 20
111.94979
 30
0.0
 11
-136.444467
 21
111.94979
 31
0.0
  0
VIEWPORT
  5
494D
 67
     1
  8
0
 10
4.995325
 20
6.556512
 30
0.0
 40
22.70986
 41
13.988421
 68
    -1
 69
     1
1001
ACAD
1000
MVIEW
1002
{
1070
    16
1010
0.0
1020
0.0
1030
0.0
1010
0.0
1020
0.0
1030
1.0
1040
0.0
1040
13.988421
1040
4.995325
1040
6.556512
1040
50.0
1040
0.0
1040
0.0
1070
     0
1070
   100
1070
     1
1070
     1
1070
     0
1070
     0
1070
     0
1070
     0
1040
0.0
1040
0.0
1040
0.0
1040
10.0
1040
10.0
1040
10.0
1040
10.0
1070
     0
1002
{
1002
}
1002
}
  0
ENDSEC
  0
EOF
