  0
SECTION
  2
HEADER
  9
$ACADVER
  1
AC1009
  9
$INSBASE
 10
402.590624
 20
-1.041018
 30
0.0
  9
$EXTMIN
 10
82.454137
 20
6.042089
 30
0.0
  9
$EXTMAX
 10
131.003184
 20
77.942089
 30
0.0
  9
$LIMMIN
 10
-407.970438
 20
-367.832444
  9
$LIMMAX
 10
429.804077
 20
234.370848
  9
$ORTHOMODE
 70
     0
  9
$REGENMODE
 70
     1
  9
$FILLMODE
 70
     1
  9
$QTEXTMODE
 70
     0
  9
$MIRRTEXT
 70
     1
  9
$DRAGMODE
 70
     2
  9
$LTSCALE
 40
10.0
  9
$OSMODE
 70
    35
  9
$ATTMODE
 70
     1
  9
$TEXTSIZE
 40
6.0
  9
$TRACEWID
 40
1.0
  9
$TEXTSTYLE
  7
ROMANS
  9
$CLAYER
  8
ALPHA
  9
$CELTYPE
  6
BYLAYER
  9
$CECOLOR
 62
   256
  9
$DIMSCALE
 40
1.0
  9
$DIMASZ
 40
5.0
  9
$DIMEXO
 40
2.0
  9
$DIMDLI
 40
0.38
  9
$DIMRND
 40
0.0
  9
$DIMDLE
 40
0.0
  9
$DIMEXE
 40
2.5
  9
$DIMTP
 40
0.0
  9
$DIMTM
 40
0.0
  9
$DIMTXT
 40
2.5
  9
$DIMCEN
 40
0.0
  9
$DIMTSZ
 40
0.0
  9
$DIMTOL
 70
     0
  9
$DIMLIM
 70
     0
  9
$DIMTIH
 70
     1
  9
$DIMTOH
 70
     1
  9
$DIMSE1
 70
     0
  9
$DIMSE2
 70
     0
  9
$DIMTAD
 70
     1
  9
$DIMZIN
 70
    12
  9
$DIMBLK
  1
OPEN30
  9
$DIMASO
 70
     1
  9
$DIMSHO
 70
     1
  9
$DIMPOST
  1

  9
$DIMAPOST
  1

  9
$DIMALT
 70
     0
  9
$DIMALTD
 70
     2
  9
$DIMALTF
 40
25.4
  9
$DIMLFAC
 40
1.0
  9
$DIMTOFL
 70
     0
  9
$DIMTVP
 40
0.0
  9
$DIMTIX
 70
     0
  9
$DIMSOXD
 70
     0
  9
$DIMSAH
 70
     0
  9
$DIMBLK1
  1

  9
$DIMBLK2
  1

  9
$DIMSTYLE
  2
SC_DEFAUT
  9
$DIMCLRD
 70
     0
  9
$DIMCLRE
 70
     0
  9
$DIMCLRT
 70
     0
  9
$DIMTFAC
 40
1.0
  9
$DIMGAP
 40
2.0
  9
$LUNITS
 70
     2
  9
$LUPREC
 70
     1
  9
$SKETCHINC
 40
0.1
  9
$FILLETRAD
 40
0.0
  9
$AUNITS
 70
     0
  9
$AUPREC
 70
     0
  9
$MENU
  1
acad
  9
$ELEVATION
 40
0.0
  9
$PELEVATION
 40
0.0
  9
$THICKNESS
 40
0.0
  9
$LIMCHECK
 70
     0
  9
$BLIPMODE
 70
     0
  9
$CHAMFERA
 40
0.0
  9
$CHAMFERB
 40
0.0
  9
$SKPOLY
 70
     0
  9
$TDCREATE
 40
2450373.687919
  9
$TDUPDATE
 40
2453032.636151
  9
$TDINDWG
 40
1.072441
  9
$TDUSRTIMER
 40
1.072441
  9
$USRTIMER
 70
     1
  9
$ANGBASE
 50
0.0
  9
$ANGDIR
 70
     0
  9
$PDMODE
 70
    32
  9
$PDSIZE
 40
0.0
  9
$PLINEWID
 40
0.0
  9
$COORDS
 70
     1
  9
$SPLFRAME
 70
     0
  9
$SPLINETYPE
 70
     6
  9
$SPLINESEGS
 70
     8
  9
$ATTDIA
 70
     0
  9
$ATTREQ
 70
     1
  9
$HANDLING
 70
     1
  9
$HANDSEED
  5
A640
  9
$SURFTAB1
 70
     6
  9
$SURFTAB2
 70
     6
  9
$SURFTYPE
 70
     6
  9
$SURFU
 70
     6
  9
$SURFV
 70
     6
  9
$UCSNAME
  2

  9
$UCSORG
 10
0.0
 20
0.0
 30
0.0
  9
$UCSXDIR
 10
1.0
 20
0.0
 30
0.0
  9
$UCSYDIR
 10
0.0
 20
1.0
 30
0.0
  9
$PUCSNAME
  2

  9
$PUCSORG
 10
0.0
 20
0.0
 30
0.0
  9
$PUCSXDIR
 10
1.0
 20
0.0
 30
0.0
  9
$PUCSYDIR
 10
0.0
 20
1.0
 30
0.0
  9
$USERI1
 70
     0
  9
$USERI2
 70
     0
  9
$USERI3
 70
     0
  9
$USERI4
 70
     0
  9
$USERI5
 70
     0
  9
$USERR1
 40
0.0
  9
$USERR2
 40
0.0
  9
$USERR3
 40
0.0
  9
$USERR4
 40
0.0
  9
$USERR5
 40
0.0
  9
$WORLDVIEW
 70
     1
  9
$SHADEDGE
 70
     3
  9
$SHADEDIF
 70
    70
  9
$TILEMODE
 70
     1
  9
$MAXACTVP
 70
    16
  9
$PLIMCHECK
 70
     0
  9
$PEXTMIN
 10
-1.452248
 20
-0.437698
 30
0.0
  9
$PEXTMAX
 10
12.749749
 20
8.310198
 30
0.0
  9
$PLIMMIN
 10
0.0
 20
0.0
  9
$PLIMMAX
 10
12.0
 20
9.0
  9
$UNITMODE
 70
     0
  9
$VISRETAIN
 70
     0
  9
$PLINEGEN
 70
     0
  9
$PSLTSCALE
 70
     0
  0
ENDSEC
  0
SECTION
  2
TABLES
  0
TABLE
  2
VPORT
 70
     2
  0
VPORT
  2
*ACTIVE
 70
     0
 10
0.0
 20
0.0
 11
1.0
 21
1.0
 12
106.728589
 22
41.973808
 13
0.0
 23
0.0
 14
1.0
 24
1.0
 15
10.0
 25
10.0
 16
0.0
 26
0.0
 36
1.0
 17
0.0
 27
0.0
 37
0.0
 40
72.467272
 41
1.466346
 42
50.0
 43
0.0
 44
0.0
 50
0.0
 51
0.0
 71
     0
 72
   100
 73
     1
 74
     0
 75
     0
 76
     0
 77
     0
 78
     0
  0
ENDTAB
  0
TABLE
  2
LTYPE
 70
     2
  0
LTYPE
  2
CONTINUOUS
 70
     0
  3
Solid line
 72
    65
 73
     0
 40
0.0
  0
LTYPE
  2
AXES2
 70
     0
  3
___ _ ___ _ ___ _ ___ _ ___ _ ___ _ ___ _ ___ _
 72
    65
 73
     4
 40
1.125
 49
0.75
 49
-0.125
 49
0.125
 49
-0.125
  0
ENDTAB
  0
TABLE
  2
LAYER
 70
     5
  0
LAYER
  2
0
 70
     0
 62
   255
  6
CONTINUOUS
  0
LAYER
  2
COTATION1
 70
     0
 62
     2
  6
CONTINUOUS
  0
LAYER
  2
AXE
 70
     0
 62
    80
  6
AXES2
  0
LAYER
  2
DEFPOINTS
 70
     0
 62
     7
  6
CONTINUOUS
  0
LAYER
  2
ALPHA
 70
     0
 62
   254
  6
CONTINUOUS
  0
ENDTAB
  0
TABLE
  2
STYLE
 70
     2
  0
STYLE
  2
ROMANS
 70
     0
 40
0.0
 41
1.0
 50
0.0
 71
     0
 42
6.0
  3
romans
  4

  0
STYLE
  2
STANDARD
 70
     0
 40
0.0
 41
1.0
 50
0.0
 71
     0
 42
0.2
  3
txt
  4

  0
ENDTAB
  0
TABLE
  2
VIEW
 70
     0
  0
ENDTAB
  0
TABLE
  2
UCS
 70
     0
  0
ENDTAB
  0
TABLE
  2
APPID
 70
     1
  0
APPID
  2
ACAD
 70
     0
  0
ENDTAB
  0
TABLE
  2
DIMSTYLE
 70
     2
  0
DIMSTYLE
  2
SC_DEFAUT
 70
     0
  3

  4

  5
OPEN30
  6

  7

 40
1.0
 41
5.0
 42
2.0
 43
0.38
 44
2.5
 45
0.0
 46
0.0
 47
0.0
 48
0.0
140
2.5
141
0.0
142
0.0
143
25.4
144
1.0
145
0.0
146
1.0
147
2.0
 71
     0
 72
     0
 73
     1
 74
     1
 75
     0
 76
     0
 77
     1
 78
    12
170
     0
171
     2
172
     0
173
     0
174
     0
175
     0
176
     0
177
     0
178
     0
  0
DIMSTYLE
  2
STANDARD
 70
     0
  3

  4

  5

  6

  7

 40
1.0
 41
0.18
 42
0.0625
 43
0.38
 44
0.18
 45
0.0
 46
0.0
 47
0.0
 48
0.0
140
0.18
141
0.09
142
0.0
143
25.4
144
1.0
145
0.0
146
1.0
147
0.09
 71
     0
 72
     0
 73
     1
 74
     1
 75
     0
 76
     0
 77
     0
 78
     0
170
     0
171
     2
172
     0
173
     0
174
     0
175
     0
176
     0
177
     0
178
     0
  0
ENDTAB
  0
ENDSEC
  0
SECTION
  2
BLOCKS
  0
BLOCK
  8
0
  2
$MODEL_SPACE
 70
     0
 10
0.0
 20
0.0
 30
0.0
  3
$MODEL_SPACE
  1

  0
ENDBLK
  5
A639
  8
0
  0
BLOCK
 67
     1
  8
0
  2
$PAPER_SPACE
 70
     0
 10
0.0
 20
0.0
 30
0.0
  3
$PAPER_SPACE
  1

  0
ENDBLK
  5
A637
 67
     1
  8
0
  0
BLOCK
  8
0
  2
COTE
 70
     0
 10
0.0
 20
0.0
 30
0.0
  3
COTE
  1

  0
ENDBLK
  5
F
  8
0
  0
BLOCK
  8
0
  2
FOND
 70
     0
 10
0.0
 20
0.0
 30
0.0
  3
FOND
  1

  0
ENDBLK
  5
75
  8
0
  0
BLOCK
  8
0
  2
_OPEN30
 70
     0
 10
0.0
 20
0.0
 30
0.0
  3
_OPEN30
  1

  0
LINE
  5
4B05
  8
COTATION1
 62
     0
 10
-1.0
 20
0.267949
 30
0.0
 11
0.0
 21
0.0
 31
0.0
1001
ACAD
1000
RTLwPs
1070
   158
  0
LINE
  5
4B06
  8
COTATION1
 62
     0
 10
0.0
 20
0.0
 30
0.0
 11
-1.0
 21
-0.267949
 31
0.0
1001
ACAD
1000
RTLwPs
1070
   158
  0
LINE
  5
4B07
  8
COTATION1
 62
     0
 10
0.0
 20
0.0
 30
0.0
 11
-1.0
 21
0.0
 31
0.0
1001
ACAD
1000
RTLwPs
1070
   158
  0
ENDBLK
  5
4B09
  8
0
  0
BLOCK
  8
0
  2
*D3
 70
     1
 10
0.0
 20
0.0
 30
0.0
  3
*D3
  1

  0
LINE
  5
A545
  8
COTATION1
 62
     0
 10
87.454137
 20
50.942089
 30
0.0
 11
87.454137
 21
75.942089
 31
0.0
1001
ACAD
1000
RTLwPs
1070
   158
  0
LINE
  5
A546
  8
COTATION1
 62
     0
 10
106.479137
 20
50.942089
 30
0.0
 11
106.479137
 21
75.942089
 31
0.0
1001
ACAD
1000
RTLwPs
1070
   158
  0
LINE
  5
A547
  8
COTATION1
 62
     0
 10
92.454137
 20
73.442089
 30
0.0
 11
101.479137
 21
73.442089
 31
0.0
1001
ACAD
1000
RTLwPs
1070
   158
  0
INSERT
  5
A548
  8
COTATION1
 62
     0
  2
_OPEN30
 10
87.454137
 20
73.442089
 30
0.0
 41
5.0
 42
5.0
 43
5.0
 50
180.0
1001
ACAD
1000
RTLwPs
1070
   158
  0
INSERT
  5
A549
  8
COTATION1
 62
     0
  2
_OPEN30
 10
106.479137
 20
73.442089
 30
0.0
 41
5.0
 42
5.0
 43
5.0
1001
ACAD
1000
RTLwPs
1070
   158
  0
TEXT
  5
A54A
  8
COTATION1
 62
     0
 10
93.633303
 20
75.442089
 30
0.0
 40
2.5
  1
%%c
1001
ACAD
1000
MTEXTBEGIN
1070
    73
1070
     1
1070
    44
1040
1.0
1070
    74
1070
     0
1000
MTEXTEND
  0
TEXT
  5
A60A
  8
COTATION1
 62
     0
 10
95.895208
 20
75.442089
 30
0.0
 40
2.5
  1
19
1001
ACAD
1000
R13OBJECT
1002
{
1005
A54A
1002
}
  0
POINT
  5
A54B
  8
DEFPOINTS
 62
     0
 10
87.454137
 20
48.942089
 30
0.0
  0
POINT
  5
A54C
  8
DEFPOINTS
 62
     0
 10
106.479137
 20
48.942089
 30
0.0
  0
POINT
  5
A54D
  8
DEFPOINTS
 62
     0
 10
106.479137
 20
73.442089
 30
0.0
  0
ENDBLK
  5
97F8
  8
0
  0
BLOCK
  8
0
  2
*D4
 70
     1
 10
0.0
 20
0.0
 30
0.0
  3
*D4
  1

  0
LINE
  5
A53B
  8
COTATION1
 62
     0
 10
98.954137
 20
58.442089
 30
0.0
 11
129.634137
 21
58.442089
 31
0.0
1001
ACAD
1000
RTLwPs
1070
   158
  0
LINE
  5
A53C
  8
COTATION1
 62
     0
 10
98.954137
 20
16.042089
 30
0.0
 11
129.634137
 21
16.042089
 31
0.0
1001
ACAD
1000
RTLwPs
1070
   158
  0
LINE
  5
A53D
  8
COTATION1
 62
     0
 10
127.134137
 20
53.442089
 30
0.0
 11
127.134137
 21
40.492089
 31
0.0
1001
ACAD
1000
RTLwPs
1070
   158
  0
LINE
  5
A53E
  8
COTATION1
 62
     0
 10
127.134137
 20
21.042089
 30
0.0
 11
127.134137
 21
33.992089
 31
0.0
1001
ACAD
1000
RTLwPs
1070
   158
  0
INSERT
  5
A53F
  8
COTATION1
 62
     0
  2
_OPEN30
 10
127.134137
 20
58.442089
 30
0.0
 41
5.0
 42
5.0
 43
5.0
 50
90.0
1001
ACAD
1000
RTLwPs
1070
   158
  0
INSERT
  5
A540
  8
COTATION1
 62
     0
  2
_OPEN30
 10
127.134137
 20
16.042089
 30
0.0
 41
5.0
 42
5.0
 43
5.0
 50
270.0
1001
ACAD
1000
RTLwPs
1070
   158
  0
TEXT
  5
A541
  8
COTATION1
 62
     0
 10
122.907946
 20
35.992089
 30
0.0
 40
2.5
  1
42.4
1001
ACAD
1000
MTEXTBEGIN
1070
    73
1070
     1
1070
    44
1040
1.0
1070
    74
1070
     0
1000
MTEXTEND
  0
POINT
  5
A542
  8
DEFPOINTS
 62
     0
 10
96.954137
 20
58.442089
 30
0.0
  0
POINT
  5
A543
  8
DEFPOINTS
 62
     0
 10
96.954137
 20
16.042089
 30
0.0
  0
POINT
  5
A544
  8
DEFPOINTS
 62
     0
 10
127.134137
 20
16.042089
 30
0.0
  0
ENDBLK
  5
989A
  8
0
  0
ENDSEC
  0
SECTION
  2
ENTITIES
  0
INSERT
  5
A
  8
0
  2
COTE
 10
0.0
 20
0.0
 30
0.0
  0
INSERT
  5
17
  8
0
  2
COTE
 10
284.010391
 20
6.373258
 30
0.0
  0
INSERT
  5
72
  8
0
  2
FOND
 10
0.0
 20
0.0
 30
0.0
  0
LINE
  5
97AB
  8
AXE
 10
96.954137
 20
6.042089
 30
0.0
 11
96.954137
 21
63.442089
 31
0.0
  0
TEXT
  5
97AC
  8
AXE
 10
91.906518
 20
6.042089
 30
0.0
 40
5.0
  1
Y
 72
     2
 11
95.954137
 21
6.042089
 31
0.0
  0
TEXT
  5
97AF
  8
AXE
 10
113.086518
 20
49.942089
 30
0.0
 40
5.0
  1
X
 72
     2
 11
117.134137
 21
49.942089
 31
0.0
  0
LINE
  5
97B0
  8
AXE
 10
82.454137
 20
48.942089
 30
0.0
 11
117.134137
 21
48.942089
 31
0.0
  0
DIMENSION
  5
97EC
  8
COTATION1
  2
*D3
 10
106.479137
 20
73.442089
 30
0.0
 11
96.966637
 21
76.692089
 31
0.0
  1
%%c<>
 13
87.454137
 23
48.942089
 33
0.0
 14
106.479137
 24
48.942089
 34
0.0
  0
DIMENSION
  5
988B
  8
COTATION1
  2
*D4
 10
127.134137
 20
16.042089
 30
0.0
 11
127.134137
 21
37.242089
 31
0.0
 13
96.954137
 23
58.442089
 33
0.0
 14
96.954137
 24
16.042089
 34
0.0
 50
90.0
  0
LINE
  5
98A5
  8
AXE
 10
86.778247
 20
24.042089
 30
0.0
 11
107.130026
 21
24.042089
 31
0.0
  0
ARC
  5
A3E0
  8
ALPHA
 10
96.954137
 20
24.042089
 30
0.0
 40
8.0
 50
172.86594
 51
7.13406
  0
CIRCLE
  5
A408
  8
ALPHA
 10
96.954137
 20
48.942089
 30
0.0
 40
9.5
  0
CIRCLE
  5
A409
  8
ALPHA
 10
96.954137
 20
48.942089
 30
0.0
 40
9.261062
  0
LINE
  5
A40A
  8
ALPHA
 10
103.41375
 20
36.169925
 30
0.0
 11
90.494523
 21
36.169925
 31
0.0
  0
LINE
  5
A40B
  8
ALPHA
 10
103.366751
 20
36.477756
 30
0.0
 11
90.541523
 21
36.477756
 31
0.0
  0
LINE
  5
A40C
  8
ALPHA
 10
103.366751
 20
36.477756
 30
0.0
 11
102.587878
 21
40.855191
 31
0.0
  0
LINE
  5
A40D
  8
ALPHA
 10
103.283149
 20
37.709079
 30
0.0
 11
102.700047
 21
41.380294
 31
0.0
  0
LINE
  5
A40E
  8
ALPHA
 10
90.409644
 20
36.169925
 30
0.0
 11
89.01607
 21
25.03562
 31
0.0
  0
LINE
  5
A40F
  8
ALPHA
 10
90.494523
 20
36.169925
 30
0.0
 11
89.01607
 21
25.03562
 31
0.0
  0
ARC
  5
A410
  8
ALPHA
 10
96.954137
 20
24.042089
 30
0.0
 40
5.175
 50
97.151216
 51
112.848784
  0
ARC
  5
A411
  8
ALPHA
 10
94.694137
 20
27.956524
 30
0.0
 40
0.22
 50
223.0
 51
17.0
  0
ARC
  5
A412
  8
ALPHA
 10
96.954137
 20
24.042089
 30
0.0
 40
5.175
 50
247.151216
 51
262.848784
  0
ARC
  5
A413
  8
ALPHA
 10
94.694137
 20
20.127654
 30
0.0
 40
0.22
 50
343.0
 51
137.0
  0
LINE
  5
A414
  8
ALPHA
 10
94.533239
 20
27.806484
 30
0.0
 11
94.229429
 21
28.13228
 31
0.0
  0
ARC
  5
A415
  8
ALPHA
 10
94.010023
 20
27.92768
 30
0.0
 40
0.3
 50
43.0
 51
127.151216
  0
LINE
  5
A416
  8
ALPHA
 10
94.774281
 20
28.44685
 30
0.0
 11
94.904524
 21
28.020846
 31
0.0
  0
ARC
  5
A417
  8
ALPHA
 10
95.061173
 20
28.534562
 30
0.0
 40
0.3
 50
112.848784
 51
197.0
  0
LINE
  5
A418
  8
ALPHA
 10
93.828847
 20
28.166794
 30
0.0
 11
94.944682
 21
28.811022
 31
0.0
  0
LINE
  5
A419
  8
ALPHA
 10
92.863946
 20
26.766796
 30
0.0
 11
93.189742
 21
26.462987
 31
0.0
  0
ARC
  5
A41A
  8
ALPHA
 10
93.039702
 20
26.302089
 30
0.0
 40
0.22
 50
253.0
 51
47.0
  0
ARC
  5
A41B
  8
ALPHA
 10
93.039702
 20
21.782089
 30
0.0
 40
0.22
 50
313.0
 51
107.0
  0
LINE
  5
A41C
  8
ALPHA
 10
92.049574
 20
24.356659
 30
0.0
 11
92.483626
 21
24.25645
 31
0.0
  0
LINE
  5
A41D
  8
ALPHA
 10
92.483626
 20
23.827728
 30
0.0
 11
92.049574
 21
23.727519
 31
0.0
  0
ARC
  5
A41E
  8
ALPHA
 10
92.461664
 20
25.935053
 30
0.0
 40
0.3
 50
73.0
 51
157.151216
  0
ARC
  5
A41F
  8
ALPHA
 10
92.117059
 20
23.435208
 30
0.0
 40
0.3
 50
103.0
 51
187.151216
  0
ARC
  5
A420
  8
ALPHA
 10
92.434137
 20
24.042089
 30
0.0
 40
0.22
 50
283.0
 51
77.0
  0
ARC
  5
A421
  8
ALPHA
 10
92.117059
 20
24.64897
 30
0.0
 40
0.3
 50
172.848784
 51
257.0
  0
ARC
  5
A422
  8
ALPHA
 10
92.461664
 20
22.149125
 30
0.0
 40
0.3
 50
202.848784
 51
287.0
  0
ARC
  5
A423
  8
ALPHA
 10
96.954137
 20
24.042089
 30
0.0
 40
5.175
 50
157.151216
 51
172.848784
  0
ARC
  5
A424
  8
ALPHA
 10
96.954137
 20
24.042089
 30
0.0
 40
5.175
 50
187.151216
 51
202.848784
  0
LINE
  5
A425
  8
ALPHA
 10
91.819393
 20
23.397861
 30
0.0
 11
91.819393
 21
24.686317
 31
0.0
  0
LINE
  5
A426
  8
ALPHA
 10
92.97538
 20
26.091702
 30
0.0
 11
92.549376
 21
26.221945
 31
0.0
  0
LINE
  5
A427
  8
ALPHA
 10
92.549376
 20
21.862233
 30
0.0
 11
92.97538
 21
21.992476
 31
0.0
  0
ARC
  5
A428
  8
ALPHA
 10
93.068545
 20
26.986202
 30
0.0
 40
0.3
 50
142.848784
 51
227.0
  0
LINE
  5
A429
  8
ALPHA
 10
92.185204
 20
26.051543
 30
0.0
 11
92.829432
 21
27.167379
 31
0.0
  0
LINE
  5
A42A
  8
ALPHA
 10
94.229429
 20
19.951898
 30
0.0
 11
94.533239
 21
20.277694
 31
0.0
  0
ARC
  5
A42B
  8
ALPHA
 10
96.954137
 20
24.042089
 30
0.0
 40
5.175
 50
217.151216
 51
232.848784
  0
ARC
  5
A42C
  8
ALPHA
 10
94.010023
 20
20.156497
 30
0.0
 40
0.3
 50
232.848784
 51
317.0
  0
ARC
  5
A42D
  8
ALPHA
 10
93.068545
 20
21.097976
 30
0.0
 40
0.3
 50
133.0
 51
217.151216
  0
LINE
  5
A42E
  8
ALPHA
 10
93.189742
 20
21.621191
 30
0.0
 11
92.863946
 21
21.317382
 31
0.0
  0
LINE
  5
A42F
  8
ALPHA
 10
92.829432
 20
20.916799
 30
0.0
 11
92.185204
 21
22.032635
 31
0.0
  0
LINE
  5
A430
  8
ALPHA
 10
94.904524
 20
20.063332
 30
0.0
 11
94.774281
 21
19.637328
 31
0.0
  0
ARC
  5
A431
  8
ALPHA
 10
95.061173
 20
19.549616
 30
0.0
 40
0.3
 50
163.0
 51
247.151216
  0
LINE
  5
A432
  8
ALPHA
 10
94.944682
 20
19.273156
 30
0.0
 11
93.828847
 21
19.917384
 31
0.0
  0
ARC
  5
A433
  8
ALPHA
 10
96.954137
 20
24.042089
 30
0.0
 40
5.175
 50
127.151216
 51
142.848784
  0
LINE
  5
A434
  8
ALPHA
 10
99.00375
 20
28.020846
 30
0.0
 11
99.133992
 21
28.44685
 31
0.0
  0
LINE
  5
A435
  8
ALPHA
 10
99.678844
 20
28.13228
 30
0.0
 11
99.375035
 21
27.806484
 31
0.0
  0
ARC
  5
A436
  8
ALPHA
 10
98.847101
 20
28.534562
 30
0.0
 40
0.3
 50
343.0
 51
67.151216
  0
ARC
  5
A437
  8
ALPHA
 10
99.89825
 20
27.92768
 30
0.0
 40
0.3
 50
52.848784
 51
137.0
  0
LINE
  5
A438
  8
ALPHA
 10
98.963591
 20
28.811022
 30
0.0
 11
100.079426
 21
28.166794
 31
0.0
  0
LINE
  5
A439
  8
ALPHA
 10
101.424648
 20
24.25645
 30
0.0
 11
101.8587
 21
24.356659
 31
0.0
  0
LINE
  5
A43A
  8
ALPHA
 10
101.8587
 20
23.727519
 30
0.0
 11
101.424648
 21
23.827728
 31
0.0
  0
ARC
  5
A43B
  8
ALPHA
 10
101.44661
 20
22.149125
 30
0.0
 40
0.3
 50
253.0
 51
337.151216
  0
ARC
  5
A43C
  8
ALPHA
 10
101.791214
 20
24.64897
 30
0.0
 40
0.3
 50
283.0
 51
7.151216
  0
ARC
  5
A43D
  8
ALPHA
 10
101.474137
 20
24.042089
 30
0.0
 40
0.22
 50
103.0
 51
257.0
  0
ARC
  5
A43E
  8
ALPHA
 10
101.791214
 20
23.435208
 30
0.0
 40
0.3
 50
352.848784
 51
77.0
  0
ARC
  5
A43F
  8
ALPHA
 10
100.839728
 20
26.986202
 30
0.0
 40
0.3
 50
313.0
 51
37.151216
  0
ARC
  5
A440
  8
ALPHA
 10
101.44661
 20
25.935053
 30
0.0
 40
0.3
 50
22.848784
 51
107.0
  0
ARC
  5
A441
  8
ALPHA
 10
96.954137
 20
24.042089
 30
0.0
 40
5.175
 50
337.151216
 51
352.848784
  0
ARC
  5
A442
  8
ALPHA
 10
96.954137
 20
24.042089
 30
0.0
 40
5.175
 50
7.151216
 51
22.848784
  0
LINE
  5
A443
  8
ALPHA
 10
101.078842
 20
27.167379
 30
0.0
 11
101.723069
 21
26.051543
 31
0.0
  0
LINE
  5
A444
  8
ALPHA
 10
102.088881
 20
24.686317
 30
0.0
 11
102.088881
 21
23.397861
 31
0.0
  0
ARC
  5
A445
  8
ALPHA
 10
100.868572
 20
21.782089
 30
0.0
 40
0.22
 50
73.0
 51
227.0
  0
ARC
  5
A446
  8
ALPHA
 10
100.868572
 20
26.302089
 30
0.0
 40
0.22
 50
133.0
 51
287.0
  0
LINE
  5
A447
  8
ALPHA
 10
100.932893
 20
21.992476
 30
0.0
 11
101.358898
 21
21.862233
 31
0.0
  0
LINE
  5
A448
  8
ALPHA
 10
100.718532
 20
26.462987
 30
0.0
 11
101.044328
 21
26.766796
 31
0.0
  0
LINE
  5
A449
  8
ALPHA
 10
101.358898
 20
26.221945
 30
0.0
 11
100.932893
 21
26.091702
 31
0.0
  0
ARC
  5
A44A
  8
ALPHA
 10
100.839728
 20
21.097976
 30
0.0
 40
0.3
 50
322.848784
 51
47.0
  0
LINE
  5
A44B
  8
ALPHA
 10
99.375035
 20
20.277694
 30
0.0
 11
99.678844
 21
19.951898
 31
0.0
  0
LINE
  5
A44C
  8
ALPHA
 10
99.133992
 20
19.637328
 30
0.0
 11
99.00375
 21
20.063332
 31
0.0
  0
ARC
  5
A44D
  8
ALPHA
 10
99.89825
 20
20.156497
 30
0.0
 40
0.3
 50
223.0
 51
307.151216
  0
ARC
  5
A44E
  8
ALPHA
 10
98.847101
 20
19.549616
 30
0.0
 40
0.3
 50
292.848784
 51
17.0
  0
LINE
  5
A44F
  8
ALPHA
 10
100.079426
 20
19.917384
 30
0.0
 11
98.963591
 21
19.273156
 31
0.0
  0
ARC
  5
A450
  8
ALPHA
 10
96.954137
 20
24.042089
 30
0.0
 40
5.175
 50
307.151216
 51
322.848784
  0
LINE
  5
A451
  8
ALPHA
 10
101.044328
 20
21.317382
 30
0.0
 11
100.718532
 21
21.621191
 31
0.0
  0
LINE
  5
A452
  8
ALPHA
 10
101.723069
 20
22.032635
 30
0.0
 11
101.078842
 21
20.916799
 31
0.0
  0
ARC
  5
A453
  8
ALPHA
 10
96.954137
 20
24.042089
 30
0.0
 40
5.175
 50
37.151216
 51
52.848784
  0
LINE
  5
A454
  8
ALPHA
 10
97.268707
 20
28.946652
 30
0.0
 11
97.168498
 21
28.5126
 31
0.0
  0
ARC
  5
A455
  8
ALPHA
 10
97.561018
 20
28.879167
 30
0.0
 40
0.3
 50
82.848784
 51
167.0
  0
LINE
  5
A456
  8
ALPHA
 10
96.954137
 20
29.217089
 30
0.0
 11
97.598365
 21
29.176833
 31
0.0
  0
LINE
  5
A457
  8
ALPHA
 10
96.739775
 20
28.5126
 30
0.0
 11
96.639567
 21
28.946652
 31
0.0
  0
ARC
  5
A458
  8
ALPHA
 10
96.347255
 20
28.879167
 30
0.0
 40
0.3
 50
13.0
 51
97.151216
  0
ARC
  5
A459
  8
ALPHA
 10
96.954137
 20
28.562089
 30
0.0
 40
0.22
 50
193.0
 51
347.0
  0
LINE
  5
A45A
  8
ALPHA
 10
96.309909
 20
29.176833
 30
0.0
 11
96.954137
 21
29.217089
 31
0.0
  0
LINE
  5
A45B
  8
ALPHA
 10
97.168498
 20
19.571578
 30
0.0
 11
97.268707
 21
19.137526
 31
0.0
  0
ARC
  5
A45C
  8
ALPHA
 10
97.561018
 20
19.205011
 30
0.0
 40
0.3
 50
193.0
 51
277.151216
  0
LINE
  5
A45D
  8
ALPHA
 10
97.598365
 20
18.907345
 30
0.0
 11
96.954137
 21
18.867089
 31
0.0
  0
LINE
  5
A45E
  8
ALPHA
 10
96.639567
 20
19.137526
 30
0.0
 11
96.739775
 21
19.571578
 31
0.0
  0
ARC
  5
A45F
  8
ALPHA
 10
96.347255
 20
19.205011
 30
0.0
 40
0.3
 50
262.848784
 51
347.0
  0
ARC
  5
A460
  8
ALPHA
 10
96.954137
 20
19.522089
 30
0.0
 40
0.22
 50
13.0
 51
167.0
  0
LINE
  5
A461
  8
ALPHA
 10
96.954137
 20
18.867089
 30
0.0
 11
96.309909
 21
18.907345
 31
0.0
  0
ARC
  5
A462
  8
ALPHA
 10
99.214137
 20
20.127654
 30
0.0
 40
0.22
 50
43.0
 51
197.0
  0
ARC
  5
A463
  8
ALPHA
 10
99.214137
 20
27.956524
 30
0.0
 40
0.22
 50
163.0
 51
317.0
  0
ARC
  5
A464
  8
ALPHA
 10
96.954137
 20
24.042089
 30
0.0
 40
5.175
 50
67.151216
 51
82.848784
  0
ARC
  5
A465
  8
ALPHA
 10
96.954137
 20
24.042089
 30
0.0
 40
5.175
 50
277.151216
 51
292.848784
  0
LINE
  5
A466
  8
ALPHA
 10
91.320395
 20
41.317591
 30
0.0
 11
91.320395
 21
40.855191
 31
0.0
  0
LINE
  5
A467
  8
ALPHA
 10
91.320395
 20
40.855191
 30
0.0
 11
91.975467
 21
40.855191
 31
0.0
  0
LINE
  5
A468
  8
ALPHA
 10
91.320395
 20
40.855191
 30
0.0
 11
91.341181
 21
41.302998
 31
0.0
  0
LINE
  5
A469
  8
ALPHA
 10
90.517384
 20
36.332709
 30
0.0
 11
90.517384
 21
36.983846
 31
0.0
  0
LINE
  5
A46A
  8
ALPHA
 10
90.517384
 20
36.983846
 30
0.0
 11
90.409644
 21
36.169925
 31
0.0
  0
LINE
  5
A46B
  8
ALPHA
 10
90.625124
 20
37.709079
 30
0.0
 11
90.517384
 21
36.983846
 31
0.0
  0
LINE
  5
A46C
  8
ALPHA
 10
90.517384
 20
36.332709
 30
0.0
 11
90.541523
 21
36.477756
 31
0.0
  0
LINE
  5
A46D
  8
ALPHA
 10
90.494523
 20
36.169925
 30
0.0
 11
90.517384
 21
36.332709
 31
0.0
  0
LINE
  5
A46E
  8
ALPHA
 10
90.625124
 20
37.709079
 30
0.0
 11
91.210579
 21
41.395108
 31
0.0
  0
LINE
  5
A46F
  8
ALPHA
 10
90.541523
 20
36.477756
 30
0.0
 11
91.320395
 21
40.855191
 31
0.0
  0
LINE
  5
A470
  8
ALPHA
 10
101.914169
 20
40.855191
 30
0.0
 11
102.587878
 21
40.855191
 31
0.0
  0
LINE
  5
A471
  8
ALPHA
 10
102.587878
 20
41.305346
 30
0.0
 11
102.587878
 21
40.855191
 31
0.0
  0
LINE
  5
A472
  8
ALPHA
 10
102.587878
 20
40.855191
 30
0.0
 11
102.567574
 21
41.291847
 31
0.0
  0
LINE
  5
A473
  8
ALPHA
 10
97.254137
 20
34.042089
 30
0.0
 11
96.654137
 21
34.042089
 31
0.0
  0
LINE
  5
A474
  8
ALPHA
 10
97.254137
 20
31.042089
 30
0.0
 11
96.654137
 21
31.042089
 31
0.0
  0
LINE
  5
A475
  8
ALPHA
 10
96.654137
 20
34.042089
 30
0.0
 11
96.654137
 21
31.042089
 31
0.0
  0
LINE
  5
A476
  8
ALPHA
 10
96.954137
 20
31.042089
 30
0.0
 11
96.954137
 21
34.042089
 31
0.0
  0
LINE
  5
A477
  8
ALPHA
 10
97.254137
 20
34.042089
 30
0.0
 11
97.254137
 21
31.042089
 31
0.0
  0
CIRCLE
  5
A478
  8
ALPHA
 10
96.954137
 20
48.942089
 30
0.0
 40
5.0
  0
CIRCLE
  5
A479
  8
ALPHA
 10
96.954137
 20
48.942089
 30
0.0
 40
5.1
  0
CIRCLE
  5
A47A
  8
ALPHA
 10
96.954137
 20
48.942089
 30
0.0
 40
1.0
  0
LINE
  5
A47B
  8
ALPHA
 10
103.41375
 20
36.169925
 30
0.0
 11
104.892203
 21
25.03562
 31
0.0
  0
LINE
  5
A47C
  8
ALPHA
 10
103.49863
 20
36.169925
 30
0.0
 11
104.892203
 21
25.03562
 31
0.0
  0
LINE
  5
A47D
  8
ALPHA
 10
103.39089
 20
36.332709
 30
0.0
 11
103.39089
 21
36.983846
 31
0.0
  0
LINE
  5
A47E
  8
ALPHA
 10
103.39089
 20
36.983846
 30
0.0
 11
103.283149
 21
37.709079
 31
0.0
  0
LINE
  5
A47F
  8
ALPHA
 10
103.49863
 20
36.169925
 30
0.0
 11
103.39089
 21
36.983846
 31
0.0
  0
LINE
  5
A480
  8
ALPHA
 10
103.39089
 20
36.332709
 30
0.0
 11
103.41375
 21
36.169925
 31
0.0
  0
LINE
  5
A481
  8
ALPHA
 10
103.366751
 20
36.477756
 30
0.0
 11
103.39089
 21
36.332709
 31
0.0
  0
VIEWPORT
  5
494D
 67
     1
  8
0
 10
4.995325
 20
6.556512
 30
0.0
 40
22.70986
 41
13.988421
 68
    -1
 69
     1
1001
ACAD
1000
MVIEW
1002
{
1070
    16
1010
0.0
1020
0.0
1030
0.0
1010
0.0
1020
0.0
1030
1.0
1040
0.0
1040
13.988421
1040
4.995325
1040
6.556512
1040
50.0
1040
0.0
1040
0.0
1070
     0
1070
   100
1070
     1
1070
     1
1070
     0
1070
     0
1070
     0
1070
     0
1040
0.0
1040
0.0
1040
0.0
1040
10.0
1040
10.0
1040
10.0
1040
10.0
1070
     0
1002
{
1002
}
1002
}
  0
ENDSEC
  0
EOF
