  0
SECTION
  2
HEADER
  9
$ACADVER
  1
AC1009
  9
$INSBASE
 10
402.590624
 20
-1.041018
 30
0.0
  9
$EXTMIN
 10
197.229064
 20
1.228457
 30
0.0
  9
$EXTMAX
 10
251.729064
 20
168.228457
 30
0.0
  9
$LIMMIN
 10
-407.970438
 20
-367.832444
  9
$LIMMAX
 10
429.804077
 20
234.370848
  9
$ORTHOMODE
 70
     1
  9
$REGENMODE
 70
     1
  9
$FILLMODE
 70
     1
  9
$QTEXTMODE
 70
     0
  9
$MIRRTEXT
 70
     1
  9
$DRAGMODE
 70
     2
  9
$LTSCALE
 40
10.0
  9
$OSMODE
 70
    33
  9
$ATTMODE
 70
     1
  9
$TEXTSIZE
 40
6.0
  9
$TRACEWID
 40
1.0
  9
$TEXTSTYLE
  7
ROMANS
  9
$CLAYER
  8
ALPHA
  9
$CELTYPE
  6
BYLAYER
  9
$CECOLOR
 62
   256
  9
$DIMSCALE
 40
1.0
  9
$DIMASZ
 40
5.0
  9
$DIMEXO
 40
2.0
  9
$DIMDLI
 40
0.38
  9
$DIMRND
 40
0.0
  9
$DIMDLE
 40
0.0
  9
$DIMEXE
 40
2.5
  9
$DIMTP
 40
0.0
  9
$DIMTM
 40
0.0
  9
$DIMTXT
 40
2.5
  9
$DIMCEN
 40
0.0
  9
$DIMTSZ
 40
0.0
  9
$DIMTOL
 70
     0
  9
$DIMLIM
 70
     0
  9
$DIMTIH
 70
     1
  9
$DIMTOH
 70
     1
  9
$DIMSE1
 70
     0
  9
$DIMSE2
 70
     0
  9
$DIMTAD
 70
     1
  9
$DIMZIN
 70
    12
  9
$DIMBLK
  1
OPEN30
  9
$DIMASO
 70
     1
  9
$DIMSHO
 70
     1
  9
$DIMPOST
  1

  9
$DIMAPOST
  1

  9
$DIMALT
 70
     0
  9
$DIMALTD
 70
     2
  9
$DIMALTF
 40
25.4
  9
$DIMLFAC
 40
1.0
  9
$DIMTOFL
 70
     0
  9
$DIMTVP
 40
0.0
  9
$DIMTIX
 70
     0
  9
$DIMSOXD
 70
     0
  9
$DIMSAH
 70
     0
  9
$DIMBLK1
  1

  9
$DIMBLK2
  1

  9
$DIMSTYLE
  2
SC_DEFAUT
  9
$DIMCLRD
 70
     0
  9
$DIMCLRE
 70
     0
  9
$DIMCLRT
 70
     0
  9
$DIMTFAC
 40
1.0
  9
$DIMGAP
 40
2.0
  9
$LUNITS
 70
     2
  9
$LUPREC
 70
     1
  9
$SKETCHINC
 40
0.1
  9
$FILLETRAD
 40
0.0
  9
$AUNITS
 70
     0
  9
$AUPREC
 70
     0
  9
$MENU
  1
acad
  9
$ELEVATION
 40
0.0
  9
$PELEVATION
 40
0.0
  9
$THICKNESS
 40
0.0
  9
$LIMCHECK
 70
     0
  9
$BLIPMODE
 70
     0
  9
$CHAMFERA
 40
0.0
  9
$CHAMFERB
 40
0.0
  9
$SKPOLY
 70
     0
  9
$TDCREATE
 40
2450373.687919
  9
$TDUPDATE
 40
2452824.585379
  9
$TDINDWG
 40
1.362007
  9
$TDUSRTIMER
 40
1.362007
  9
$USRTIMER
 70
     1
  9
$ANGBASE
 50
0.0
  9
$ANGDIR
 70
     0
  9
$PDMODE
 70
    32
  9
$PDSIZE
 40
0.0
  9
$PLINEWID
 40
0.0
  9
$COORDS
 70
     1
  9
$SPLFRAME
 70
     0
  9
$SPLINETYPE
 70
     6
  9
$SPLINESEGS
 70
     8
  9
$ATTDIA
 70
     0
  9
$ATTREQ
 70
     1
  9
$HANDLING
 70
     1
  9
$HANDSEED
  5
EA30
  9
$SURFTAB1
 70
     6
  9
$SURFTAB2
 70
     6
  9
$SURFTYPE
 70
     6
  9
$SURFU
 70
     6
  9
$SURFV
 70
     6
  9
$UCSNAME
  2

  9
$UCSORG
 10
0.0
 20
0.0
 30
0.0
  9
$UCSXDIR
 10
1.0
 20
0.0
 30
0.0
  9
$UCSYDIR
 10
0.0
 20
1.0
 30
0.0
  9
$PUCSNAME
  2

  9
$PUCSORG
 10
0.0
 20
0.0
 30
0.0
  9
$PUCSXDIR
 10
1.0
 20
0.0
 30
0.0
  9
$PUCSYDIR
 10
0.0
 20
1.0
 30
0.0
  9
$USERI1
 70
     0
  9
$USERI2
 70
     0
  9
$USERI3
 70
     0
  9
$USERI4
 70
     0
  9
$USERI5
 70
     0
  9
$USERR1
 40
0.0
  9
$USERR2
 40
0.0
  9
$USERR3
 40
0.0
  9
$USERR4
 40
0.0
  9
$USERR5
 40
0.0
  9
$WORLDVIEW
 70
     1
  9
$SHADEDGE
 70
     3
  9
$SHADEDIF
 70
    70
  9
$TILEMODE
 70
     1
  9
$MAXACTVP
 70
    16
  9
$PLIMCHECK
 70
     0
  9
$PEXTMIN
 10
-1.452248
 20
-0.437698
 30
0.0
  9
$PEXTMAX
 10
12.749749
 20
8.310198
 30
0.0
  9
$PLIMMIN
 10
0.0
 20
0.0
  9
$PLIMMAX
 10
12.0
 20
9.0
  9
$UNITMODE
 70
     0
  9
$VISRETAIN
 70
     0
  9
$PLINEGEN
 70
     0
  9
$PSLTSCALE
 70
     0
  0
ENDSEC
  0
SECTION
  2
TABLES
  0
TABLE
  2
VPORT
 70
     2
  0
VPORT
  2
*ACTIVE
 70
     0
 10
0.0
 20
0.0
 11
1.0
 21
1.0
 12
224.46393
 22
84.725133
 13
0.0
 23
0.0
 14
1.0
 24
1.0
 15
10.0
 25
10.0
 16
0.0
 26
0.0
 36
1.0
 17
0.0
 27
0.0
 37
0.0
 40
168.437586
 41
1.56
 42
50.0
 43
0.0
 44
0.0
 50
0.0
 51
0.0
 71
     0
 72
   100
 73
     1
 74
     0
 75
     0
 76
     0
 77
     0
 78
     0
  0
ENDTAB
  0
TABLE
  2
LTYPE
 70
     3
  0
LTYPE
  2
CONTINUOUS
 70
     0
  3
Solid line
 72
    65
 73
     0
 40
0.0
  0
LTYPE
  2
AXES2
 70
     0
  3
___ _ ___ _ ___ _ ___ _ ___ _ ___ _ ___ _ ___ _
 72
    65
 73
     4
 40
1.125
 49
0.75
 49
-0.125
 49
0.125
 49
-0.125
  0
LTYPE
  2
CACHE2
 70
     0
  3
Caché (x.5) _ _ _ _ _ _ _ _ _ _ _ _ _ _ _ _ _
 72
    65
 73
     2
 40
0.1875
 49
0.125
 49
-0.0625
  0
ENDTAB
  0
TABLE
  2
LAYER
 70
     6
  0
LAYER
  2
0
 70
     0
 62
   255
  6
CONTINUOUS
  0
LAYER
  2
COTATION1
 70
     0
 62
     2
  6
CONTINUOUS
  0
LAYER
  2
AXE
 70
     0
 62
    80
  6
AXES2
  0
LAYER
  2
DEFPOINTS
 70
     0
 62
     7
  6
CONTINUOUS
  0
LAYER
  2
ALPHA
 70
     0
 62
   254
  6
CONTINUOUS
  0
LAYER
  2
POINTILLE_COURT
 70
     0
 62
    41
  6
CACHE2
  0
ENDTAB
  0
TABLE
  2
STYLE
 70
     2
  0
STYLE
  2
ROMANS
 70
     0
 40
0.0
 41
1.0
 50
0.0
 71
     0
 42
6.0
  3
romans
  4

  0
STYLE
  2
STANDARD
 70
     0
 40
0.2
 41
1.0
 50
0.0
 71
     0
 42
0.2
  3
txt
  4

  0
ENDTAB
  0
TABLE
  2
VIEW
 70
     0
  0
ENDTAB
  0
TABLE
  2
UCS
 70
     0
  0
ENDTAB
  0
TABLE
  2
APPID
 70
     1
  0
APPID
  2
ACAD
 70
     0
  0
ENDTAB
  0
TABLE
  2
DIMSTYLE
 70
     1
  0
DIMSTYLE
  2
SC_DEFAUT
 70
     0
  3

  4

  5
OPEN30
  6

  7

 40
1.0
 41
5.0
 42
2.0
 43
0.38
 44
2.5
 45
0.0
 46
0.0
 47
0.0
 48
0.0
140
2.5
141
0.0
142
0.0
143
25.4
144
1.0
145
0.0
146
1.0
147
2.0
 71
     0
 72
     0
 73
     1
 74
     1
 75
     0
 76
     0
 77
     1
 78
    12
170
     0
171
     2
172
     0
173
     0
174
     0
175
     0
176
     0
177
     0
178
     0
  0
ENDTAB
  0
ENDSEC
  0
SECTION
  2
BLOCKS
  0
BLOCK
  8
0
  2
$MODEL_SPACE
 70
     0
 10
0.0
 20
0.0
 30
0.0
  3
$MODEL_SPACE
  1

  0
ENDBLK
  5
EA03
  8
0
  0
BLOCK
 67
     1
  8
0
  2
$PAPER_SPACE
 70
     0
 10
0.0
 20
0.0
 30
0.0
  3
$PAPER_SPACE
  1

  0
ENDBLK
  5
EA01
 67
     1
  8
0
  0
BLOCK
  8
0
  2
COTE
 70
     0
 10
0.0
 20
0.0
 30
0.0
  3
COTE
  1

  0
ENDBLK
  5
F
  8
0
  0
BLOCK
  8
0
  2
FOND
 70
     0
 10
0.0
 20
0.0
 30
0.0
  3
FOND
  1

  0
ENDBLK
  5
75
  8
0
  0
BLOCK
  8
0
  2
_OPEN30
 70
     0
 10
0.0
 20
0.0
 30
0.0
  3
_OPEN30
  1

  0
LINE
  5
4B05
  8
COTATION1
 62
     0
 10
-1.0
 20
0.267949
 30
0.0
 11
0.0
 21
0.0
 31
0.0
1001
ACAD
1000
RTLwPs
1070
   158
  0
LINE
  5
4B06
  8
COTATION1
 62
     0
 10
0.0
 20
0.0
 30
0.0
 11
-1.0
 21
-0.267949
 31
0.0
1001
ACAD
1000
RTLwPs
1070
   158
  0
LINE
  5
4B07
  8
COTATION1
 62
     0
 10
0.0
 20
0.0
 30
0.0
 11
-1.0
 21
0.0
 31
0.0
1001
ACAD
1000
RTLwPs
1070
   158
  0
ENDBLK
  5
4B09
  8
0
  0
BLOCK
  8
0
  2
*D3
 70
     1
 10
0.0
 20
0.0
 30
0.0
  3
*D3
  1

  0
LINE
  5
E8E4
  8
COTATION1
 62
     0
 10
206.729064
 20
56.780776
 30
0.0
 11
206.729064
 21
11.228457
 31
0.0
1001
ACAD
1000
RTLwPs
1070
   158
  0
LINE
  5
E8E5
  8
COTATION1
 62
     0
 10
236.729064
 20
37.728457
 30
0.0
 11
236.729064
 21
11.228457
 31
0.0
1001
ACAD
1000
RTLwPs
1070
   158
  0
LINE
  5
E8E6
  8
COTATION1
 62
     0
 10
211.729064
 20
13.728457
 30
0.0
 11
231.729064
 21
13.728457
 31
0.0
1001
ACAD
1000
RTLwPs
1070
   158
  0
INSERT
  5
E8E7
  8
COTATION1
 62
     0
  2
_OPEN30
 10
206.729064
 20
13.728457
 30
0.0
 41
5.0
 42
5.0
 43
5.0
 50
180.0
1001
ACAD
1000
RTLwPs
1070
   158
  0
INSERT
  5
E8E8
  8
COTATION1
 62
     0
  2
_OPEN30
 10
236.729064
 20
13.728457
 30
0.0
 41
5.0
 42
5.0
 43
5.0
1001
ACAD
1000
RTLwPs
1070
   158
  0
TEXT
  5
E8E9
  8
COTATION1
 62
     0
 10
219.348112
 20
15.728457
 30
0.0
 40
2.5
  1
30
1001
ACAD
1000
MTEXTBEGIN
1070
    73
1070
     1
1070
    44
1040
1.0
1070
    74
1070
     0
1000
MTEXTEND
  0
POINT
  5
E8EA
  8
DEFPOINTS
 62
     0
 10
206.729064
 20
58.780776
 30
0.0
  0
POINT
  5
E8EB
  8
DEFPOINTS
 62
     0
 10
236.729064
 20
39.728457
 30
0.0
  0
POINT
  5
E8EC
  8
DEFPOINTS
 62
     0
 10
236.729064
 20
13.728457
 30
0.0
  0
ENDBLK
  5
DC4A
  8
0
  0
BLOCK
  8
0
  2
*D4
 70
     1
 10
0.0
 20
0.0
 30
0.0
  3
*D4
  1

  0
LINE
  5
E8F6
  8
COTATION1
 62
     0
 10
202.229064
 20
93.728457
 30
0.0
 11
202.229064
 21
1.228457
 31
0.0
1001
ACAD
1000
RTLwPs
1070
   158
  0
LINE
  5
E8F7
  8
COTATION1
 62
     0
 10
236.729064
 20
37.728457
 30
0.0
 11
236.729064
 21
1.228457
 31
0.0
1001
ACAD
1000
RTLwPs
1070
   158
  0
LINE
  5
E8F8
  8
COTATION1
 62
     0
 10
207.229064
 20
3.728457
 30
0.0
 11
231.729064
 21
3.728457
 31
0.0
1001
ACAD
1000
RTLwPs
1070
   158
  0
INSERT
  5
E8F9
  8
COTATION1
 62
     0
  2
_OPEN30
 10
202.229064
 20
3.728457
 30
0.0
 41
5.0
 42
5.0
 43
5.0
 50
180.0
1001
ACAD
1000
RTLwPs
1070
   158
  0
INSERT
  5
E8FA
  8
COTATION1
 62
     0
  2
_OPEN30
 10
236.729064
 20
3.728457
 30
0.0
 41
5.0
 42
5.0
 43
5.0
1001
ACAD
1000
RTLwPs
1070
   158
  0
TEXT
  5
E8FB
  8
COTATION1
 62
     0
 10
215.312398
 20
5.728457
 30
0.0
 40
2.5
  1
34.5
1001
ACAD
1000
MTEXTBEGIN
1070
    73
1070
     1
1070
    44
1040
1.0
1070
    74
1070
     0
1000
MTEXTEND
  0
POINT
  5
E8FC
  8
DEFPOINTS
 62
     0
 10
202.229064
 20
95.728457
 30
0.0
  0
POINT
  5
E8FD
  8
DEFPOINTS
 62
     0
 10
236.729064
 20
39.728457
 30
0.0
  0
POINT
  5
E8FE
  8
DEFPOINTS
 62
     0
 10
236.729064
 20
3.728457
 30
0.0
  0
ENDBLK
  5
DC56
  8
0
  0
BLOCK
  8
0
  2
*D5
 70
     1
 10
0.0
 20
0.0
 30
0.0
  3
*D5
  1

  0
LINE
  5
E419
  8
COTATION1
 62
     0
 10
224.229064
 20
145.728457
 30
0.0
 11
224.229064
 21
166.228457
 31
0.0
1001
ACAD
1000
RTLwPs
1070
   158
  0
LINE
  5
E41A
  8
COTATION1
 62
     0
 10
236.729064
 20
120.728457
 30
0.0
 11
236.729064
 21
166.228457
 31
0.0
1001
ACAD
1000
RTLwPs
1070
   158
  0
LINE
  5
E41B
  8
COTATION1
 62
     0
 10
219.229064
 20
163.728457
 30
0.0
 11
214.229064
 21
163.728457
 31
0.0
1001
ACAD
1000
RTLwPs
1070
   158
  0
LINE
  5
E41C
  8
COTATION1
 62
     0
 10
241.729064
 20
163.728457
 30
0.0
 11
246.729064
 21
163.728457
 31
0.0
1001
ACAD
1000
RTLwPs
1070
   158
  0
INSERT
  5
E41D
  8
COTATION1
 62
     0
  2
_OPEN30
 10
224.229064
 20
163.728457
 30
0.0
 41
5.0
 42
5.0
 43
5.0
1001
ACAD
1000
RTLwPs
1070
   158
  0
INSERT
  5
E41E
  8
COTATION1
 62
     0
  2
_OPEN30
 10
236.729064
 20
163.728457
 30
0.0
 41
5.0
 42
5.0
 43
5.0
 50
180.0
1001
ACAD
1000
RTLwPs
1070
   158
  0
TEXT
  5
E41F
  8
COTATION1
 62
     0
 10
226.133826
 20
165.728457
 30
0.0
 40
2.5
  1
12.5
1001
ACAD
1000
MTEXTBEGIN
1070
    73
1070
     1
1070
    44
1040
1.0
1070
    74
1070
     0
1000
MTEXTEND
1000
MTEXTBEGIN
1070
    73
1070
     1
1070
    44
1040
1.0
1070
    74
1070
     0
1000
MTEXTEND
1000
MTEXTBEGIN
1070
    73
1070
     1
1070
    44
1040
1.0
1070
    74
1070
     0
1000
MTEXTEND
  0
POINT
  5
E420
  8
DEFPOINTS
 62
     0
 10
224.229064
 20
143.728457
 30
0.0
  0
POINT
  5
E421
  8
DEFPOINTS
 62
     0
 10
236.729064
 20
118.728457
 30
0.0
  0
POINT
  5
E422
  8
DEFPOINTS
 62
     0
 10
236.729064
 20
163.728457
 30
0.0
  0
ENDBLK
  5
DDE8
  8
0
  0
BLOCK
  8
0
  2
*D6
 70
     1
 10
0.0
 20
0.0
 30
0.0
  3
*D6
  1

  0
LINE
  5
E40E
  8
COTATION1
 62
     0
 10
222.479064
 20
141.228457
 30
0.0
 11
222.479064
 21
156.228457
 31
0.0
1001
ACAD
1000
RTLwPs
1070
   158
  0
LINE
  5
E40F
  8
COTATION1
 62
     0
 10
225.979064
 20
141.228457
 30
0.0
 11
225.979064
 21
156.228457
 31
0.0
1001
ACAD
1000
RTLwPs
1070
   158
  0
LINE
  5
E410
  8
COTATION1
 62
     0
 10
217.479064
 20
153.728457
 30
0.0
 11
212.479064
 21
153.728457
 31
0.0
1001
ACAD
1000
RTLwPs
1070
   158
  0
LINE
  5
E411
  8
COTATION1
 62
     0
 10
230.979064
 20
153.728457
 30
0.0
 11
235.979064
 21
153.728457
 31
0.0
1001
ACAD
1000
RTLwPs
1070
   158
  0
TEXT
  5
E412
  8
COTATION1
 62
     0
 10
209.502874
 20
155.728457
 30
0.0
 40
2.5
  1
3.5
1001
ACAD
1000
MTEXTBEGIN
1070
    73
1070
     1
1070
    44
1040
1.0
1070
    74
1070
     0
1000
MTEXTEND
1000
MTEXTBEGIN
1070
    73
1070
     1
1070
    44
1040
1.0
1070
    74
1070
     0
1000
MTEXTEND
1000
MTEXTBEGIN
1070
    73
1070
     1
1070
    44
1040
1.0
1070
    74
1070
     0
1000
MTEXTEND
  0
INSERT
  5
E413
  8
COTATION1
 62
     0
  2
_OPEN30
 10
222.479064
 20
153.728457
 30
0.0
 41
5.0
 42
5.0
 43
5.0
1001
ACAD
1000
RTLwPs
1070
   158
  0
INSERT
  5
E414
  8
COTATION1
 62
     0
  2
_OPEN30
 10
225.979064
 20
153.728457
 30
0.0
 41
5.0
 42
5.0
 43
5.0
 50
180.0
1001
ACAD
1000
RTLwPs
1070
   158
  0
POINT
  5
E415
  8
DEFPOINTS
 62
     0
 10
222.479064
 20
139.228457
 30
0.0
  0
POINT
  5
E416
  8
DEFPOINTS
 62
     0
 10
225.979064
 20
139.228457
 30
0.0
  0
POINT
  5
E417
  8
DEFPOINTS
 62
     0
 10
225.979064
 20
153.728457
 30
0.0
  0
ENDBLK
  5
E342
  8
0
  0
BLOCK
  8
0
  2
*D7
 70
     1
 10
0.0
 20
0.0
 30
0.0
  3
*D7
  1

  0
LINE
  5
E8DA
  8
COTATION1
 62
     0
 10
232.729064
 20
55.728457
 30
0.0
 11
232.729064
 21
21.228457
 31
0.0
1001
ACAD
1000
RTLwPs
1070
   158
  0
LINE
  5
E8DB
  8
COTATION1
 62
     0
 10
236.729064
 20
37.728457
 30
0.0
 11
236.729064
 21
21.228457
 31
0.0
1001
ACAD
1000
RTLwPs
1070
   158
  0
LINE
  5
E8DC
  8
COTATION1
 62
     0
 10
227.729064
 20
23.728457
 30
0.0
 11
222.729064
 21
23.728457
 31
0.0
1001
ACAD
1000
RTLwPs
1070
   158
  0
LINE
  5
E8DD
  8
COTATION1
 62
     0
 10
241.729064
 20
23.728457
 30
0.0
 11
246.729064
 21
23.728457
 31
0.0
1001
ACAD
1000
RTLwPs
1070
   158
  0
TEXT
  5
E8DE
  8
COTATION1
 62
     0
 10
245.479064
 20
25.728457
 30
0.0
 40
2.5
  1
4
1001
ACAD
1000
MTEXTBEGIN
1070
    73
1070
     1
1070
    44
1040
1.0
1070
    74
1070
     0
1000
MTEXTEND
  0
INSERT
  5
E8DF
  8
COTATION1
 62
     0
  2
_OPEN30
 10
232.729064
 20
23.728457
 30
0.0
 41
5.0
 42
5.0
 43
5.0
1001
ACAD
1000
RTLwPs
1070
   158
  0
INSERT
  5
E8E0
  8
COTATION1
 62
     0
  2
_OPEN30
 10
236.729064
 20
23.728457
 30
0.0
 41
5.0
 42
5.0
 43
5.0
 50
180.0
1001
ACAD
1000
RTLwPs
1070
   158
  0
POINT
  5
E8E1
  8
DEFPOINTS
 62
     0
 10
232.729064
 20
57.728457
 30
0.0
  0
POINT
  5
E8E2
  8
DEFPOINTS
 62
     0
 10
236.729064
 20
39.728457
 30
0.0
  0
POINT
  5
E8E3
  8
DEFPOINTS
 62
     0
 10
236.729064
 20
23.728457
 30
0.0
  0
ENDBLK
  5
E8AF
  8
0
  0
ENDSEC
  0
SECTION
  2
ENTITIES
  0
INSERT
  5
A
  8
0
  2
COTE
 10
0.0
 20
0.0
 30
0.0
  0
INSERT
  5
17
  8
0
  2
COTE
 10
284.010391
 20
6.373258
 30
0.0
  0
INSERT
  5
72
  8
0
  2
FOND
 10
0.0
 20
0.0
 30
0.0
  0
POLYLINE
  5
DBC9
  8
ALPHA
 66
     1
 10
0.0
 20
0.0
 30
0.0
 70
   128
210
0.0
220
0.0
230
-1.0
  0
VERTEX
  5
EA09
  8
ALPHA
 10
-224.775807
 20
58.413808
 30
0.0
  0
VERTEX
  5
EA0A
  8
ALPHA
 10
-225.515649
 20
58.413808
 30
0.0
  0
VERTEX
  5
EA0B
  8
ALPHA
 10
-225.965602
 20
58.282761
 30
0.0
  0
VERTEX
  5
EA0C
  8
ALPHA
 10
-226.129419
 20
58.087451
 30
0.0
  0
VERTEX
  5
EA0D
  8
ALPHA
 10
-226.358097
 20
57.699099
 30
0.0
  0
VERTEX
  5
EA0E
  8
ALPHA
 10
-226.753733
 20
56.893738
 30
0.0
  0
VERTEX
  5
EA0F
  8
ALPHA
 10
-226.968757
 20
56.440208
 30
0.0
  0
SEQEND
  5
EA10
  8
ALPHA
  0
POLYLINE
  5
DBCA
  8
ALPHA
 66
     1
 10
0.0
 20
0.0
 30
0.0
 70
   128
210
0.0
220
0.0
230
-1.0
  0
VERTEX
  5
EA11
  8
ALPHA
 10
-219.551966
 20
54.728457
 30
0.0
  0
VERTEX
  5
EA12
  8
ALPHA
 10
-217.864906
 20
54.883982
 30
0.0
  0
VERTEX
  5
EA13
  8
ALPHA
 10
-215.95128
 20
55.250769
 30
0.0
  0
VERTEX
  5
EA14
  8
ALPHA
 10
-211.968587
 20
56.356367
 30
0.0
  0
VERTEX
  5
EA15
  8
ALPHA
 10
-210.161647
 20
56.964297
 30
0.0
  0
VERTEX
  5
EA16
  8
ALPHA
 10
-208.652397
 20
57.521728
 30
0.0
  0
VERTEX
  5
EA17
  8
ALPHA
 10
-207.571899
 20
57.963219
 30
0.0
  0
VERTEX
  5
EA18
  8
ALPHA
 10
-207.051217
 20
58.22333
 30
0.0
  0
SEQEND
  5
EA19
  8
ALPHA
  0
POLYLINE
  5
DBCB
  8
ALPHA
 66
     1
 10
0.0
 20
0.0
 30
0.0
 70
   128
210
0.0
220
0.0
230
-1.0
  0
VERTEX
  5
EA1A
  8
ALPHA
 10
-207.051217
 20
58.22333
 30
0.0
  0
VERTEX
  5
EA1B
  8
ALPHA
 10
-206.890141
 20
58.365784
 30
0.0
  0
VERTEX
  5
EA1C
  8
ALPHA
 10
-206.729064
 20
58.780776
 30
0.0
  0
SEQEND
  5
EA1D
  8
ALPHA
  0
POLYLINE
  5
DBCC
  8
ALPHA
 66
     1
 10
0.0
 20
0.0
 30
0.0
 70
   128
  0
VERTEX
  5
EA1E
  8
ALPHA
 10
221.213215
 20
56.728457
 30
0.0
  0
VERTEX
  5
EA1F
  8
ALPHA
 10
220.490444
 20
68.388836
 30
0.0
  0
VERTEX
  5
EA20
  8
ALPHA
 10
219.037206
 20
79.518103
 30
0.0
  0
VERTEX
  5
EA21
  8
ALPHA
 10
217.050935
 20
89.933578
 30
0.0
  0
VERTEX
  5
EA22
  8
ALPHA
 10
215.91961
 20
94.816557
 30
0.0
  0
VERTEX
  5
EA23
  8
ALPHA
 10
214.729064
 20
99.452583
 30
0.0
  0
SEQEND
  5
EA24
  8
ALPHA
  0
POLYLINE
  5
DBCD
  8
ALPHA
 66
     1
 10
0.0
 20
0.0
 30
0.0
 70
   128
210
0.0
220
0.0
230
-1.0
  0
VERTEX
  5
EA25
  8
ALPHA
 10
-224.118307
 20
57.976207
 30
0.0
  0
VERTEX
  5
EA26
  8
ALPHA
 10
-224.380881
 20
58.342615
 30
0.0
  0
VERTEX
  5
EA27
  8
ALPHA
 10
-224.775807
 20
58.413808
 30
0.0
  0
SEQEND
  5
EA28
  8
ALPHA
  0
POLYLINE
  5
DBCE
  8
ALPHA
 66
     1
 10
0.0
 20
0.0
 30
0.0
 70
   128
210
0.0
220
0.0
230
-1.0
  0
VERTEX
  5
EA29
  8
ALPHA
 10
-226.968757
 20
56.440208
 30
0.0
  0
VERTEX
  5
EA2A
  8
ALPHA
 10
-227.049393
 20
56.312131
 30
0.0
  0
VERTEX
  5
EA2B
  8
ALPHA
 10
-227.198435
 20
55.94747
 30
0.0
  0
VERTEX
  5
EA2C
  8
ALPHA
 10
-227.276499
 20
55.37562
 30
0.0
  0
VERTEX
  5
EA2D
  8
ALPHA
 10
-226.959311
 20
54.728457
 30
0.0
  0
SEQEND
  5
EA2E
  8
ALPHA
  0
DIMENSION
  5
DBD3
  8
COTATION1
  2
*D4
 10
236.729064
 20
3.728457
 30
0.0
 11
219.479064
 21
6.978457
 31
0.0
 13
202.229064
 23
95.728457
 33
0.0
 14
236.729064
 24
39.728457
 34
0.0
  0
LINE
  5
DBD7
  8
ALPHA
 10
218.229064
 20
47.728457
 30
0.0
 11
212.729064
 21
47.728457
 31
0.0
  0
LINE
  5
DBD8
  8
ALPHA
 10
224.729064
 20
49.228457
 30
0.0
 11
213.029064
 21
49.228457
 31
0.0
  0
LINE
  5
DBD9
  8
ALPHA
 10
224.729064
 20
39.728457
 30
0.0
 11
212.729064
 21
39.728457
 31
0.0
  0
LINE
  5
DBDB
  8
ALPHA
 10
202.229064
 20
116.028457
 30
0.0
 11
236.729064
 21
116.028457
 31
0.0
  0
LINE
  5
DBDC
  8
ALPHA
 10
212.729064
 20
53.728457
 30
0.0
 11
236.729064
 21
53.728457
 31
0.0
  0
ARC
  5
DBDD
  8
ALPHA
 10
62.386833
 20
55.387689
 30
0.0
 40
156.451664
 50
0.857269
 51
13.161146
  0
LINE
  5
DBDE
  8
AXE
 10
197.229064
 20
86.228457
 30
0.0
 11
251.729064
 21
86.228457
 31
0.0
  0
DIMENSION
  5
DBDF
  8
COTATION1
  2
*D3
 10
236.729064
 20
13.728457
 30
0.0
 11
221.729064
 21
16.978457
 31
0.0
 13
206.729064
 23
58.780776
 33
0.0
 14
236.729064
 24
39.728457
 34
0.0
  0
LINE
  5
DBE2
  8
ALPHA
 10
206.729064
 20
92.3893
 30
0.0
 11
206.729064
 21
58.780776
 31
0.0
  0
LINE
  5
DBE3
  8
ALPHA
 10
212.729064
 20
47.728457
 30
0.0
 11
212.729064
 21
39.728457
 31
0.0
  0
LINE
  5
DBE4
  8
ALPHA
 10
213.029064
 20
49.228457
 30
0.0
 11
212.729064
 21
47.728457
 31
0.0
  0
ARC
  5
DBE5
  8
ALPHA
 10
208.589683
 20
51.192498
 30
0.0
 40
4.854438
 50
336.134766
 51
31.493383
  0
LINE
  5
DBE6
  8
ALPHA
 10
212.078589
 20
56.331078
 30
0.0
 11
212.729064
 21
53.728457
 31
0.0
  0
LINE
  5
DC20
  8
AXE
 10
224.229064
 20
143.728457
 30
0.0
 11
224.229064
 21
23.728457
 31
0.0
  0
LINE
  5
DC21
  8
ALPHA
 10
236.729064
 20
118.728457
 30
0.0
 11
236.729064
 21
53.728457
 31
0.0
  0
TEXT
  5
DC22
  8
AXE
 10
216.752874
 20
23.728457
 30
0.0
 40
8.0
  1
Y
 72
     2
 11
223.229064
 21
23.728457
 31
0.0
  0
LINE
  5
DC23
  8
ALPHA
 10
224.70282
 20
59.728457
 30
0.0
 11
223.702084
 21
56.728457
 31
0.0
  0
LINE
  5
DC24
  8
ALPHA
 10
236.729064
 20
47.728457
 30
0.0
 11
236.729064
 21
39.728457
 31
0.0
  0
LINE
  5
DC25
  8
ALPHA
 10
218.229064
 20
47.728457
 30
0.0
 11
218.229064
 21
39.728457
 31
0.0
  0
LINE
  5
DC26
  8
ALPHA
 10
231.229064
 20
47.728457
 30
0.0
 11
231.229064
 21
39.728457
 31
0.0
  0
LINE
  5
DC27
  8
ALPHA
 10
224.729064
 20
39.728457
 30
0.0
 11
236.729064
 21
39.728457
 31
0.0
  0
LINE
  5
DC28
  8
ALPHA
 10
224.729064
 20
49.228457
 30
0.0
 11
236.429064
 21
49.228457
 31
0.0
  0
LINE
  5
DC29
  8
ALPHA
 10
231.229064
 20
47.728457
 30
0.0
 11
236.729064
 21
47.728457
 31
0.0
  0
LINE
  5
DC2A
  8
ALPHA
 10
219.551966
 20
54.728457
 30
0.0
 11
236.729064
 21
54.728457
 31
0.0
  0
ARC
  5
DC2B
  8
ALPHA
 10
224.729064
 20
34.395124
 30
0.0
 40
14.833333
 50
64.010766
 51
115.989234
  0
LINE
  5
DC2C
  8
ALPHA
 10
221.213215
 20
56.728457
 30
0.0
 11
223.702084
 21
56.728457
 31
0.0
  0
LINE
  5
DC2D
  8
ALPHA
 10
218.820985
 20
57.728457
 30
0.0
 11
221.185313
 21
57.728457
 31
0.0
  0
ARC
  5
DC2E
  8
ALPHA
 10
240.868446
 20
51.192498
 30
0.0
 40
4.854438
 50
148.506617
 51
203.865234
  0
LINE
  5
DC2F
  8
ALPHA
 10
236.429064
 20
49.228457
 30
0.0
 11
236.729064
 21
47.728457
 31
0.0
  0
LINE
  5
DC30
  8
ALPHA
 10
224.70282
 20
59.728457
 30
0.0
 11
236.729064
 21
59.728457
 31
0.0
  0
TEXT
  5
DC31
  8
AXE
 10
245.252874
 20
87.228457
 30
0.0
 40
8.0
  1
Z
 72
     2
 11
251.729064
 21
87.228457
 31
0.0
  0
LINE
  5
DDB9
  8
ALPHA
 10
214.729064
 20
118.728457
 30
0.0
 11
214.729064
 21
91.010263
 31
0.0
  0
ARC
  5
DDBA
  8
ALPHA
 10
213.150053
 20
105.744296
 30
0.0
 40
14.818401
 50
222.524506
 51
276.116907
  0
LINE
  5
DDBC
  8
ALPHA
 10
202.229064
 20
95.728457
 30
0.0
 11
202.229064
 21
118.728457
 31
0.0
  0
DIMENSION
  5
DDDA
  8
COTATION1
  2
*D5
 10
236.729064
 20
163.728457
 30
0.0
 11
230.479064
 21
166.978457
 31
0.0
 13
224.229064
 23
143.728457
 33
0.0
 14
236.729064
 24
118.728457
 34
0.0
  0
DIMENSION
  5
E2D0
  8
COTATION1
  2
*D6
 10
225.979064
 20
153.728457
 30
0.0
 11
212.479064
 21
153.728457
 31
0.0
 70
   128
 13
222.479064
 23
139.228457
 33
0.0
 14
225.979064
 24
139.228457
 34
0.0
  0
LINE
  5
E2D1
  8
ALPHA
 10
226.179064
 20
132.17456
 30
0.0
 11
230.229064
 21
132.17456
 31
0.0
  0
LINE
  5
E2D2
  8
ALPHA
 10
226.179064
 20
133.17456
 30
0.0
 11
229.229064
 21
133.17456
 31
0.0
  0
LINE
  5
E2D3
  8
ALPHA
 10
225.979064
 20
136.17456
 30
0.0
 11
227.729064
 21
136.17456
 31
0.0
  0
LINE
  5
E2D4
  8
ALPHA
 10
224.229064
 20
120.17456
 30
0.0
 11
231.979064
 21
120.17456
 31
0.0
  0
LINE
  5
E2D5
  8
ALPHA
 10
224.229064
 20
120.67456
 30
0.0
 11
231.479064
 21
120.67456
 31
0.0
  0
LINE
  5
E2D7
  8
ALPHA
 10
231.979064
 20
118.17456
 30
0.0
 11
216.479064
 21
118.17456
 31
0.0
  0
LINE
  5
E2D9
  8
ALPHA
 10
226.179064
 20
133.17456
 30
0.0
 11
226.179064
 21
124.67456
 31
0.0
  0
LINE
  5
E2DA
  8
ALPHA
 10
225.979064
 20
139.228457
 30
0.0
 11
225.979064
 21
127.628457
 31
0.0
  0
LINE
  5
E2DB
  8
ALPHA
 10
218.229064
 20
132.17456
 30
0.0
 11
218.229064
 21
120.67456
 31
0.0
  0
LINE
  5
E2DC
  8
ALPHA
 10
222.279064
 20
133.17456
 30
0.0
 11
222.279064
 21
124.67456
 31
0.0
  0
LINE
  5
E2DD
  8
ALPHA
 10
222.479064
 20
139.228457
 30
0.0
 11
222.479064
 21
127.628457
 31
0.0
  0
LINE
  5
E2DE
  8
ALPHA
 10
225.979064
 20
127.628457
 30
0.0
 11
224.229064
 21
127.628457
 31
0.0
  0
LINE
  5
E2DF
  8
ALPHA
 10
224.229064
 20
124.67456
 30
0.0
 11
226.179064
 21
124.67456
 31
0.0
  0
LINE
  5
E2E0
  8
ALPHA
 10
224.229064
 20
124.67456
 30
0.0
 11
222.279064
 21
124.67456
 31
0.0
  0
LINE
  5
E2E1
  8
ALPHA
 10
224.229064
 20
120.67456
 30
0.0
 11
216.979064
 21
120.67456
 31
0.0
  0
LINE
  5
E2E2
  8
ALPHA
 10
224.229064
 20
120.17456
 30
0.0
 11
216.479064
 21
120.17456
 31
0.0
  0
LINE
  5
E2E3
  8
ALPHA
 10
222.479064
 20
127.628457
 30
0.0
 11
224.229064
 21
127.628457
 31
0.0
  0
LINE
  5
E2E4
  8
ALPHA
 10
202.229064
 20
118.728457
 30
0.0
 11
216.479064
 21
118.728457
 31
0.0
  0
LINE
  5
E2E5
  8
ALPHA
 10
216.479064
 20
120.17456
 30
0.0
 11
216.479064
 21
118.17456
 31
0.0
  0
LINE
  5
E2E6
  8
ALPHA
 10
216.479064
 20
120.17456
 30
0.0
 11
216.979064
 21
120.67456
 31
0.0
  0
LINE
  5
E2E8
  8
ALPHA
 10
225.979064
 20
139.228457
 30
0.0
 11
224.229064
 21
139.228457
 31
0.0
  0
ARC
  5
E2E9
  8
ALPHA
 10
219.729916
 20
134.010518
 30
0.0
 40
1.199688
 50
358.282449
 51
33.608343
  0
LINE
  5
E2EA
  8
ALPHA
 10
220.929064
 20
134.046476
 30
0.0
 11
220.929064
 21
133.17456
 31
0.0
  0
LINE
  5
E2EB
  8
ALPHA
 10
220.729064
 20
136.17456
 30
0.0
 11
220.729064
 21
134.67456
 31
0.0
  0
LINE
  5
E2EC
  8
ALPHA
 10
222.479064
 20
136.17456
 30
0.0
 11
220.729064
 21
136.17456
 31
0.0
  0
LINE
  5
E2ED
  8
ALPHA
 10
218.229064
 20
132.17456
 30
0.0
 11
219.229064
 21
133.17456
 31
0.0
  0
LINE
  5
E2EE
  8
ALPHA
 10
222.279064
 20
133.17456
 30
0.0
 11
219.229064
 21
133.17456
 31
0.0
  0
LINE
  5
E2EF
  8
ALPHA
 10
222.279064
 20
132.17456
 30
0.0
 11
218.229064
 21
132.17456
 31
0.0
  0
LINE
  5
E2F0
  8
ALPHA
 10
222.479064
 20
139.228457
 30
0.0
 11
224.229064
 21
139.228457
 31
0.0
  0
LINE
  5
E2F1
  8
ALPHA
 10
230.229064
 20
132.17456
 30
0.0
 11
230.229064
 21
120.67456
 31
0.0
  0
LINE
  5
E2F2
  8
ALPHA
 10
231.979064
 20
120.17456
 30
0.0
 11
231.979064
 21
118.17456
 31
0.0
  0
LINE
  5
E2F3
  8
ALPHA
 10
231.979064
 20
120.17456
 30
0.0
 11
231.479064
 21
120.67456
 31
0.0
  0
LINE
  5
E2F4
  8
ALPHA
 10
231.979064
 20
118.728457
 30
0.0
 11
236.729064
 21
118.728457
 31
0.0
  0
LINE
  5
E2F5
  8
ALPHA
 10
230.229064
 20
132.17456
 30
0.0
 11
229.229064
 21
133.17456
 31
0.0
  0
ARC
  5
E2F6
  8
ALPHA
 10
228.728213
 20
134.010518
 30
0.0
 40
1.199688
 50
146.391657
 51
181.717551
  0
LINE
  5
E2F7
  8
ALPHA
 10
227.729064
 20
136.17456
 30
0.0
 11
227.729064
 21
134.67456
 31
0.0
  0
LINE
  5
E2F8
  8
ALPHA
 10
227.529064
 20
134.046476
 30
0.0
 11
227.529064
 21
133.17456
 31
0.0
  0
ARC
  5
E88E
  8
POINTILLE_COURT
 10
234.229064
 20
57.728457
 30
0.0
 40
1.5
 50
90.0
 51
270.0
  0
LINE
  5
E8A0
  8
POINTILLE_COURT
 10
234.229064
 20
59.228457
 30
0.0
 11
236.729064
 21
59.228457
 31
0.0
  0
LINE
  5
E8A2
  8
POINTILLE_COURT
 10
234.229064
 20
56.228457
 30
0.0
 11
236.729064
 21
56.228457
 31
0.0
  0
DIMENSION
  5
E8A3
  8
COTATION1
  2
*D7
 10
236.729064
 20
23.728457
 30
0.0
 11
246.729064
 21
23.728457
 31
0.0
 70
   128
 13
232.729064
 23
57.728457
 33
0.0
 14
236.729064
 24
39.728457
 34
0.0
  0
VIEWPORT
  5
494D
 67
     1
  8
0
 10
4.995325
 20
6.556512
 30
0.0
 40
22.70986
 41
13.988421
 68
    -1
 69
     1
1001
ACAD
1000
MVIEW
1002
{
1070
    16
1010
0.0
1020
0.0
1030
0.0
1010
0.0
1020
0.0
1030
1.0
1040
0.0
1040
13.988421
1040
4.995325
1040
6.556512
1040
50.0
1040
0.0
1040
0.0
1070
     0
1070
   100
1070
     1
1070
     1
1070
     0
1070
     0
1070
     0
1070
     0
1040
0.0
1040
0.0
1040
0.0
1040
10.0
1040
10.0
1040
10.0
1040
10.0
1070
     0
1002
{
1002
}
1002
}
  0
ENDSEC
  0
EOF
