  0
SECTION
  2
HEADER
  9
$ACADVER
  1
AC1009
  9
$INSBASE
 10
402.590624
 20
-1.041018
 30
0.0
  9
$EXTMIN
 10
-80.103176
 20
23.728457
 30
0.0
  9
$EXTMAX
 10
-10.067462
 20
204.228457
 30
0.0
  9
$LIMMIN
 10
-407.970438
 20
-367.832444
  9
$LIMMAX
 10
429.804077
 20
234.370848
  9
$ORTHOMODE
 70
     1
  9
$REGENMODE
 70
     1
  9
$FILLMODE
 70
     1
  9
$QTEXTMODE
 70
     0
  9
$MIRRTEXT
 70
     1
  9
$DRAGMODE
 70
     2
  9
$LTSCALE
 40
10.0
  9
$OSMODE
 70
    33
  9
$ATTMODE
 70
     1
  9
$TEXTSIZE
 40
6.0
  9
$TRACEWID
 40
1.0
  9
$TEXTSTYLE
  7
ROMANS
  9
$CLAYER
  8
ALPHA
  9
$CELTYPE
  6
BYLAYER
  9
$CECOLOR
 62
   256
  9
$DIMSCALE
 40
1.0
  9
$DIMASZ
 40
5.0
  9
$DIMEXO
 40
2.0
  9
$DIMDLI
 40
0.38
  9
$DIMRND
 40
0.0
  9
$DIMDLE
 40
0.0
  9
$DIMEXE
 40
2.5
  9
$DIMTP
 40
0.0
  9
$DIMTM
 40
0.0
  9
$DIMTXT
 40
2.5
  9
$DIMCEN
 40
0.0
  9
$DIMTSZ
 40
0.0
  9
$DIMTOL
 70
     0
  9
$DIMLIM
 70
     0
  9
$DIMTIH
 70
     1
  9
$DIMTOH
 70
     1
  9
$DIMSE1
 70
     0
  9
$DIMSE2
 70
     0
  9
$DIMTAD
 70
     1
  9
$DIMZIN
 70
    12
  9
$DIMBLK
  1
OPEN30
  9
$DIMASO
 70
     1
  9
$DIMSHO
 70
     1
  9
$DIMPOST
  1

  9
$DIMAPOST
  1

  9
$DIMALT
 70
     0
  9
$DIMALTD
 70
     2
  9
$DIMALTF
 40
25.4
  9
$DIMLFAC
 40
1.0
  9
$DIMTOFL
 70
     0
  9
$DIMTVP
 40
0.0
  9
$DIMTIX
 70
     0
  9
$DIMSOXD
 70
     0
  9
$DIMSAH
 70
     0
  9
$DIMBLK1
  1

  9
$DIMBLK2
  1

  9
$DIMSTYLE
  2
SC_DEFAUT
  9
$DIMCLRD
 70
     0
  9
$DIMCLRE
 70
     0
  9
$DIMCLRT
 70
     0
  9
$DIMTFAC
 40
1.0
  9
$DIMGAP
 40
2.0
  9
$LUNITS
 70
     2
  9
$LUPREC
 70
     1
  9
$SKETCHINC
 40
0.1
  9
$FILLETRAD
 40
4.0
  9
$AUNITS
 70
     0
  9
$AUPREC
 70
     0
  9
$MENU
  1
acad
  9
$ELEVATION
 40
0.0
  9
$PELEVATION
 40
0.0
  9
$THICKNESS
 40
0.0
  9
$LIMCHECK
 70
     0
  9
$BLIPMODE
 70
     0
  9
$CHAMFERA
 40
0.0
  9
$CHAMFERB
 40
0.0
  9
$SKPOLY
 70
     0
  9
$TDCREATE
 40
2450373.687919
  9
$TDUPDATE
 40
2452824.595228
  9
$TDINDWG
 40
1.266226
  9
$TDUSRTIMER
 40
1.266226
  9
$USRTIMER
 70
     1
  9
$ANGBASE
 50
0.0
  9
$ANGDIR
 70
     0
  9
$PDMODE
 70
    32
  9
$PDSIZE
 40
0.0
  9
$PLINEWID
 40
0.0
  9
$COORDS
 70
     1
  9
$SPLFRAME
 70
     0
  9
$SPLINETYPE
 70
     6
  9
$SPLINESEGS
 70
     8
  9
$ATTDIA
 70
     0
  9
$ATTREQ
 70
     1
  9
$HANDLING
 70
     1
  9
$HANDSEED
  5
D266
  9
$SURFTAB1
 70
     6
  9
$SURFTAB2
 70
     6
  9
$SURFTYPE
 70
     6
  9
$SURFU
 70
     6
  9
$SURFV
 70
     6
  9
$UCSNAME
  2

  9
$UCSORG
 10
0.0
 20
0.0
 30
0.0
  9
$UCSXDIR
 10
1.0
 20
0.0
 30
0.0
  9
$UCSYDIR
 10
0.0
 20
1.0
 30
0.0
  9
$PUCSNAME
  2

  9
$PUCSORG
 10
0.0
 20
0.0
 30
0.0
  9
$PUCSXDIR
 10
1.0
 20
0.0
 30
0.0
  9
$PUCSYDIR
 10
0.0
 20
1.0
 30
0.0
  9
$USERI1
 70
     0
  9
$USERI2
 70
     0
  9
$USERI3
 70
     0
  9
$USERI4
 70
     0
  9
$USERI5
 70
     0
  9
$USERR1
 40
0.0
  9
$USERR2
 40
0.0
  9
$USERR3
 40
0.0
  9
$USERR4
 40
0.0
  9
$USERR5
 40
0.0
  9
$WORLDVIEW
 70
     1
  9
$SHADEDGE
 70
     3
  9
$SHADEDIF
 70
    70
  9
$TILEMODE
 70
     1
  9
$MAXACTVP
 70
    16
  9
$PLIMCHECK
 70
     0
  9
$PEXTMIN
 10
-1.452248
 20
-0.437698
 30
0.0
  9
$PEXTMAX
 10
12.749749
 20
8.310198
 30
0.0
  9
$PLIMMIN
 10
0.0
 20
0.0
  9
$PLIMMAX
 10
12.0
 20
9.0
  9
$UNITMODE
 70
     0
  9
$VISRETAIN
 70
     0
  9
$PLINEGEN
 70
     0
  9
$PSLTSCALE
 70
     0
  0
ENDSEC
  0
SECTION
  2
TABLES
  0
TABLE
  2
VPORT
 70
     2
  0
VPORT
  2
*ACTIVE
 70
     0
 10
0.0
 20
0.0
 11
1.0
 21
1.0
 12
-45.106537
 22
113.968785
 13
0.0
 23
0.0
 14
1.0
 24
1.0
 15
10.0
 25
10.0
 16
0.0
 26
0.0
 36
1.0
 17
0.0
 27
0.0
 37
0.0
 40
182.107211
 41
1.56
 42
50.0
 43
0.0
 44
0.0
 50
0.0
 51
0.0
 71
     0
 72
   100
 73
     1
 74
     0
 75
     0
 76
     0
 77
     0
 78
     0
  0
ENDTAB
  0
TABLE
  2
LTYPE
 70
     3
  0
LTYPE
  2
CONTINUOUS
 70
     0
  3
Solid line
 72
    65
 73
     0
 40
0.0
  0
LTYPE
  2
AXES2
 70
     0
  3
___ _ ___ _ ___ _ ___ _ ___ _ ___ _ ___ _ ___ _
 72
    65
 73
     4
 40
1.125
 49
0.75
 49
-0.125
 49
0.125
 49
-0.125
  0
LTYPE
  2
CACHE2
 70
     0
  3
Caché (x.5) _ _ _ _ _ _ _ _ _ _ _ _ _ _ _ _ _
 72
    65
 73
     2
 40
0.1875
 49
0.125
 49
-0.0625
  0
ENDTAB
  0
TABLE
  2
LAYER
 70
     6
  0
LAYER
  2
0
 70
     0
 62
   255
  6
CONTINUOUS
  0
LAYER
  2
COTATION1
 70
     0
 62
     2
  6
CONTINUOUS
  0
LAYER
  2
AXE
 70
     0
 62
    80
  6
AXES2
  0
LAYER
  2
DEFPOINTS
 70
     0
 62
     7
  6
CONTINUOUS
  0
LAYER
  2
ALPHA
 70
     0
 62
   254
  6
CONTINUOUS
  0
LAYER
  2
POINTILLE_COURT
 70
     0
 62
    41
  6
CACHE2
  0
ENDTAB
  0
TABLE
  2
STYLE
 70
     2
  0
STYLE
  2
ROMANS
 70
     0
 40
0.0
 41
1.0
 50
0.0
 71
     0
 42
6.0
  3
romans
  4

  0
STYLE
  2
STANDARD
 70
     0
 40
0.2
 41
1.0
 50
0.0
 71
     0
 42
0.2
  3
txt
  4

  0
ENDTAB
  0
TABLE
  2
VIEW
 70
     0
  0
ENDTAB
  0
TABLE
  2
UCS
 70
     0
  0
ENDTAB
  0
TABLE
  2
APPID
 70
     1
  0
APPID
  2
ACAD
 70
     0
  0
ENDTAB
  0
TABLE
  2
DIMSTYLE
 70
     1
  0
DIMSTYLE
  2
SC_DEFAUT
 70
     0
  3

  4

  5
OPEN30
  6

  7

 40
1.0
 41
5.0
 42
2.0
 43
0.38
 44
2.5
 45
0.0
 46
0.0
 47
0.0
 48
0.0
140
2.5
141
0.0
142
0.0
143
25.4
144
1.0
145
0.0
146
1.0
147
2.0
 71
     0
 72
     0
 73
     1
 74
     1
 75
     0
 76
     0
 77
     1
 78
    12
170
     0
171
     2
172
     0
173
     0
174
     0
175
     0
176
     0
177
     0
178
     0
  0
ENDTAB
  0
ENDSEC
  0
SECTION
  2
BLOCKS
  0
BLOCK
  8
0
  2
$MODEL_SPACE
 70
     0
 10
0.0
 20
0.0
 30
0.0
  3
$MODEL_SPACE
  1

  0
ENDBLK
  5
D238
  8
0
  0
BLOCK
 67
     1
  8
0
  2
$PAPER_SPACE
 70
     0
 10
0.0
 20
0.0
 30
0.0
  3
$PAPER_SPACE
  1

  0
ENDBLK
  5
D236
 67
     1
  8
0
  0
BLOCK
  8
0
  2
COTE
 70
     0
 10
0.0
 20
0.0
 30
0.0
  3
COTE
  1

  0
ENDBLK
  5
F
  8
0
  0
BLOCK
  8
0
  2
FOND
 70
     0
 10
0.0
 20
0.0
 30
0.0
  3
FOND
  1

  0
ENDBLK
  5
75
  8
0
  0
BLOCK
  8
0
  2
_OPEN30
 70
     0
 10
0.0
 20
0.0
 30
0.0
  3
_OPEN30
  1

  0
LINE
  5
4B05
  8
COTATION1
 62
     0
 10
-1.0
 20
0.267949
 30
0.0
 11
0.0
 21
0.0
 31
0.0
1001
ACAD
1000
RTLwPs
1070
   158
  0
LINE
  5
4B06
  8
COTATION1
 62
     0
 10
0.0
 20
0.0
 30
0.0
 11
-1.0
 21
-0.267949
 31
0.0
1001
ACAD
1000
RTLwPs
1070
   158
  0
LINE
  5
4B07
  8
COTATION1
 62
     0
 10
0.0
 20
0.0
 30
0.0
 11
-1.0
 21
0.0
 31
0.0
1001
ACAD
1000
RTLwPs
1070
   158
  0
ENDBLK
  5
4B09
  8
0
  0
BLOCK
  8
0
  2
*D3
 70
     1
 10
0.0
 20
0.0
 30
0.0
  3
*D3
  1

  0
LINE
  5
CC90
  8
COTATION1
 62
     0
 10
-70.603176
 20
108.204829
 30
0.0
 11
-70.603176
 21
192.228457
 31
0.0
1001
ACAD
1000
RTLwPs
1070
   158
  0
LINE
  5
CC91
  8
COTATION1
 62
     0
 10
-40.603176
 20
135.67456
 30
0.0
 11
-40.603176
 21
192.228457
 31
0.0
1001
ACAD
1000
RTLwPs
1070
   158
  0
LINE
  5
CC92
  8
COTATION1
 62
     0
 10
-65.603176
 20
189.728457
 30
0.0
 11
-45.603176
 21
189.728457
 31
0.0
1001
ACAD
1000
RTLwPs
1070
   158
  0
INSERT
  5
CC93
  8
COTATION1
 62
     0
  2
_OPEN30
 10
-70.603176
 20
189.728457
 30
0.0
 41
5.0
 42
5.0
 43
5.0
 50
180.0
1001
ACAD
1000
RTLwPs
1070
   158
  0
INSERT
  5
CC94
  8
COTATION1
 62
     0
  2
_OPEN30
 10
-40.603176
 20
189.728457
 30
0.0
 41
5.0
 42
5.0
 43
5.0
1001
ACAD
1000
RTLwPs
1070
   158
  0
TEXT
  5
CC95
  8
COTATION1
 62
     0
 10
-57.984129
 20
191.728457
 30
0.0
 40
2.5
  1
30
1001
ACAD
1000
MTEXTBEGIN
1070
    73
1070
     1
1070
    44
1040
1.0
1070
    74
1070
     0
1000
MTEXTEND
1000
MTEXTBEGIN
1070
    73
1070
     1
1070
    44
1040
1.0
1070
    74
1070
     0
1000
MTEXTEND
1000
MTEXTBEGIN
1070
    73
1070
     1
1070
    44
1040
1.0
1070
    74
1070
     0
1000
MTEXTEND
1000
MTEXTBEGIN
1070
    73
1070
     1
1070
    44
1040
1.0
1070
    74
1070
     0
1000
MTEXTEND
1000
MTEXTBEGIN
1070
    73
1070
     1
1070
    44
1040
1.0
1070
    74
1070
     0
1000
MTEXTEND
  0
POINT
  5
CC96
  8
DEFPOINTS
 62
     0
 10
-70.603176
 20
106.204829
 30
0.0
  0
POINT
  5
CC97
  8
DEFPOINTS
 62
     0
 10
-40.603176
 20
133.67456
 30
0.0
  0
POINT
  5
CC98
  8
DEFPOINTS
 62
     0
 10
-40.603176
 20
189.728457
 30
0.0
  0
ENDBLK
  5
C7B0
  8
0
  0
BLOCK
  8
0
  2
*D4
 70
     1
 10
0.0
 20
0.0
 30
0.0
  3
*D4
  1

  0
LINE
  5
CE54
  8
COTATION1
 62
     0
 10
-49.353176
 20
154.728457
 30
0.0
 11
-10.603176
 21
154.728457
 31
0.0
1001
ACAD
1000
RTLwPs
1070
   158
  0
LINE
  5
CE55
  8
COTATION1
 62
     0
 10
-38.603176
 20
39.728457
 30
0.0
 11
-10.603176
 21
39.728457
 31
0.0
1001
ACAD
1000
RTLwPs
1070
   158
  0
LINE
  5
CE56
  8
COTATION1
 62
     0
 10
-13.103176
 20
149.728457
 30
0.0
 11
-13.103176
 21
100.478457
 31
0.0
1001
ACAD
1000
RTLwPs
1070
   158
  0
LINE
  5
CE57
  8
COTATION1
 62
     0
 10
-13.103176
 20
44.728457
 30
0.0
 11
-13.103176
 21
93.978457
 31
0.0
1001
ACAD
1000
RTLwPs
1070
   158
  0
INSERT
  5
CE58
  8
COTATION1
 62
     0
  2
_OPEN30
 10
-13.103176
 20
154.728457
 30
0.0
 41
5.0
 42
5.0
 43
5.0
 50
90.0
1001
ACAD
1000
RTLwPs
1070
   158
  0
INSERT
  5
CE59
  8
COTATION1
 62
     0
  2
_OPEN30
 10
-13.103176
 20
39.728457
 30
0.0
 41
5.0
 42
5.0
 43
5.0
 50
270.0
1001
ACAD
1000
RTLwPs
1070
   158
  0
TEXT
  5
CE5A
  8
COTATION1
 62
     0
 10
-16.853176
 20
95.978457
 30
0.0
 40
2.5
  1
115
1001
ACAD
1000
MTEXTBEGIN
1070
    73
1070
     1
1070
    44
1040
1.0
1070
    74
1070
     0
1000
MTEXTEND
1000
MTEXTBEGIN
1070
    73
1070
     1
1070
    44
1040
1.0
1070
    74
1070
     0
1000
MTEXTEND
1000
MTEXTBEGIN
1070
    73
1070
     1
1070
    44
1040
1.0
1070
    74
1070
     0
1000
MTEXTEND
1000
MTEXTBEGIN
1070
    73
1070
     1
1070
    44
1040
1.0
1070
    74
1070
     0
1000
MTEXTEND
  0
POINT
  5
CE5B
  8
DEFPOINTS
 62
     0
 10
-51.353176
 20
154.728457
 30
0.0
  0
POINT
  5
CE5C
  8
DEFPOINTS
 62
     0
 10
-40.603176
 20
39.728457
 30
0.0
  0
POINT
  5
CE5D
  8
DEFPOINTS
 62
     0
 10
-13.103176
 20
39.728457
 30
0.0
  0
ENDBLK
  5
C7BD
  8
0
  0
BLOCK
  8
0
  2
*D5
 70
     1
 10
0.0
 20
0.0
 30
0.0
  3
*D5
  1

  0
LINE
  5
CC86
  8
COTATION1
 62
     0
 10
-53.103176
 20
161.728457
 30
0.0
 11
-53.103176
 21
182.228457
 31
0.0
1001
ACAD
1000
RTLwPs
1070
   158
  0
LINE
  5
CC87
  8
COTATION1
 62
     0
 10
-40.603176
 20
135.67456
 30
0.0
 11
-40.603176
 21
182.228457
 31
0.0
1001
ACAD
1000
RTLwPs
1070
   158
  0
LINE
  5
CC88
  8
COTATION1
 62
     0
 10
-58.103176
 20
179.728457
 30
0.0
 11
-63.103176
 21
179.728457
 31
0.0
1001
ACAD
1000
RTLwPs
1070
   158
  0
LINE
  5
CC89
  8
COTATION1
 62
     0
 10
-35.603176
 20
179.728457
 30
0.0
 11
-30.603176
 21
179.728457
 31
0.0
1001
ACAD
1000
RTLwPs
1070
   158
  0
INSERT
  5
CC8A
  8
COTATION1
 62
     0
  2
_OPEN30
 10
-53.103176
 20
179.728457
 30
0.0
 41
5.0
 42
5.0
 43
5.0
1001
ACAD
1000
RTLwPs
1070
   158
  0
INSERT
  5
CC8B
  8
COTATION1
 62
     0
  2
_OPEN30
 10
-40.603176
 20
179.728457
 30
0.0
 41
5.0
 42
5.0
 43
5.0
 50
180.0
1001
ACAD
1000
RTLwPs
1070
   158
  0
TEXT
  5
CC8C
  8
COTATION1
 62
     0
 10
-51.198414
 20
181.728457
 30
0.0
 40
2.5
  1
12.5
1001
ACAD
1000
MTEXTBEGIN
1070
    73
1070
     1
1070
    44
1040
1.0
1070
    74
1070
     0
1000
MTEXTEND
1000
MTEXTBEGIN
1070
    73
1070
     1
1070
    44
1040
1.0
1070
    74
1070
     0
1000
MTEXTEND
1000
MTEXTBEGIN
1070
    73
1070
     1
1070
    44
1040
1.0
1070
    74
1070
     0
1000
MTEXTEND
1000
MTEXTBEGIN
1070
    73
1070
     1
1070
    44
1040
1.0
1070
    74
1070
     0
1000
MTEXTEND
1000
MTEXTBEGIN
1070
    73
1070
     1
1070
    44
1040
1.0
1070
    74
1070
     0
1000
MTEXTEND
  0
POINT
  5
CC8D
  8
DEFPOINTS
 62
     0
 10
-53.103176
 20
159.728457
 30
0.0
  0
POINT
  5
CC8E
  8
DEFPOINTS
 62
     0
 10
-40.603176
 20
133.67456
 30
0.0
  0
POINT
  5
CC8F
  8
DEFPOINTS
 62
     0
 10
-40.603176
 20
179.728457
 30
0.0
  0
ENDBLK
  5
C81A
  8
0
  0
BLOCK
  8
0
  2
*D6
 70
     1
 10
0.0
 20
0.0
 30
0.0
  3
*D6
  1

  0
LINE
  5
CC7D
  8
COTATION1
 62
     0
 10
-80.103176
 20
123.428421
 30
0.0
 11
-80.103176
 21
202.228457
 31
0.0
1001
ACAD
1000
RTLwPs
1070
   158
  0
LINE
  5
CC7E
  8
COTATION1
 62
     0
 10
-40.603176
 20
135.67456
 30
0.0
 11
-40.603176
 21
202.228457
 31
0.0
1001
ACAD
1000
RTLwPs
1070
   158
  0
LINE
  5
CC7F
  8
COTATION1
 62
     0
 10
-75.103176
 20
199.728457
 30
0.0
 11
-45.603176
 21
199.728457
 31
0.0
1001
ACAD
1000
RTLwPs
1070
   158
  0
INSERT
  5
CC80
  8
COTATION1
 62
     0
  2
_OPEN30
 10
-80.103176
 20
199.728457
 30
0.0
 41
5.0
 42
5.0
 43
5.0
 50
180.0
1001
ACAD
1000
RTLwPs
1070
   158
  0
INSERT
  5
CC81
  8
COTATION1
 62
     0
  2
_OPEN30
 10
-40.603176
 20
199.728457
 30
0.0
 41
5.0
 42
5.0
 43
5.0
1001
ACAD
1000
RTLwPs
1070
   158
  0
TEXT
  5
CC82
  8
COTATION1
 62
     0
 10
-64.519843
 20
201.728457
 30
0.0
 40
2.5
  1
39.5
1001
ACAD
1000
MTEXTBEGIN
1070
    73
1070
     1
1070
    44
1040
1.0
1070
    74
1070
     0
1000
MTEXTEND
1000
MTEXTBEGIN
1070
    73
1070
     1
1070
    44
1040
1.0
1070
    74
1070
     0
1000
MTEXTEND
1000
MTEXTBEGIN
1070
    73
1070
     1
1070
    44
1040
1.0
1070
    74
1070
     0
1000
MTEXTEND
1000
MTEXTBEGIN
1070
    73
1070
     1
1070
    44
1040
1.0
1070
    74
1070
     0
1000
MTEXTEND
1000
MTEXTBEGIN
1070
    73
1070
     1
1070
    44
1040
1.0
1070
    74
1070
     0
1000
MTEXTEND
  0
POINT
  5
CC83
  8
DEFPOINTS
 62
     0
 10
-80.103176
 20
121.428421
 30
0.0
  0
POINT
  5
CC84
  8
DEFPOINTS
 62
     0
 10
-40.603176
 20
133.67456
 30
0.0
  0
POINT
  5
CC85
  8
DEFPOINTS
 62
     0
 10
-40.603176
 20
199.728457
 30
0.0
  0
ENDBLK
  5
C8DB
  8
0
  0
BLOCK
  8
0
  2
*D7
 70
     1
 10
0.0
 20
0.0
 30
0.0
  3
*D7
  1

  0
LINE
  5
CCBB
  8
COTATION1
 62
     0
 10
-54.853176
 20
157.300262
 30
0.0
 11
-54.853176
 21
172.300262
 31
0.0
1001
ACAD
1000
RTLwPs
1070
   158
  0
LINE
  5
CCBC
  8
COTATION1
 62
     0
 10
-51.353176
 20
156.728457
 30
0.0
 11
-51.353176
 21
172.300262
 31
0.0
1001
ACAD
1000
RTLwPs
1070
   158
  0
LINE
  5
CCBD
  8
COTATION1
 62
     0
 10
-59.853176
 20
169.800262
 30
0.0
 11
-64.853176
 21
169.800262
 31
0.0
1001
ACAD
1000
RTLwPs
1070
   158
  0
LINE
  5
CCBE
  8
COTATION1
 62
     0
 10
-46.353176
 20
169.800262
 30
0.0
 11
-41.353176
 21
169.800262
 31
0.0
1001
ACAD
1000
RTLwPs
1070
   158
  0
TEXT
  5
CCBF
  8
COTATION1
 62
     0
 10
-69.579367
 20
171.800262
 30
0.0
 40
2.5
  1
3.5
1001
ACAD
1000
MTEXTBEGIN
1070
    73
1070
     1
1070
    44
1040
1.0
1070
    74
1070
     0
1000
MTEXTEND
1000
MTEXTBEGIN
1070
    73
1070
     1
1070
    44
1040
1.0
1070
    74
1070
     0
1000
MTEXTEND
1000
MTEXTBEGIN
1070
    73
1070
     1
1070
    44
1040
1.0
1070
    74
1070
     0
1000
MTEXTEND
1000
MTEXTBEGIN
1070
    73
1070
     1
1070
    44
1040
1.0
1070
    74
1070
     0
1000
MTEXTEND
1000
MTEXTBEGIN
1070
    73
1070
     1
1070
    44
1040
1.0
1070
    74
1070
     0
1000
MTEXTEND
  0
INSERT
  5
CCC0
  8
COTATION1
 62
     0
  2
_OPEN30
 10
-54.853176
 20
169.800262
 30
0.0
 41
5.0
 42
5.0
 43
5.0
1001
ACAD
1000
RTLwPs
1070
   158
  0
INSERT
  5
CCC1
  8
COTATION1
 62
     0
  2
_OPEN30
 10
-51.353176
 20
169.800262
 30
0.0
 41
5.0
 42
5.0
 43
5.0
 50
180.0
1001
ACAD
1000
RTLwPs
1070
   158
  0
POINT
  5
CCC2
  8
DEFPOINTS
 62
     0
 10
-54.853176
 20
155.300262
 30
0.0
  0
POINT
  5
CCC3
  8
DEFPOINTS
 62
     0
 10
-51.353176
 20
154.728457
 30
0.0
  0
POINT
  5
CCC4
  8
DEFPOINTS
 62
     0
 10
-51.353176
 20
169.800262
 30
0.0
  0
ENDBLK
  5
CCA6
  8
0
  0
BLOCK
  8
0
  2
*D8
 70
     1
 10
0.0
 20
0.0
 30
0.0
  3
*D8
  1

  0
LINE
  5
D198
  8
COTATION1
 62
     0
 10
-44.603176
 20
59.728457
 30
0.0
 11
-44.603176
 21
72.981314
 31
0.0
1001
ACAD
1000
RTLwPs
1070
   158
  0
LINE
  5
D199
  8
COTATION1
 62
     0
 10
-40.603176
 20
61.728457
 30
0.0
 11
-40.603176
 21
72.981314
 31
0.0
1001
ACAD
1000
RTLwPs
1070
   158
  0
LINE
  5
D19A
  8
COTATION1
 62
     0
 10
-49.603176
 20
70.481314
 30
0.0
 11
-54.603176
 21
70.481314
 31
0.0
1001
ACAD
1000
RTLwPs
1070
   158
  0
LINE
  5
D19B
  8
COTATION1
 62
     0
 10
-35.603176
 20
70.481314
 30
0.0
 11
-30.603176
 21
70.481314
 31
0.0
1001
ACAD
1000
RTLwPs
1070
   158
  0
TEXT
  5
D19C
  8
COTATION1
 62
     0
 10
-31.853176
 20
72.481314
 30
0.0
 40
2.5
  1
4
1001
ACAD
1000
MTEXTBEGIN
1070
    73
1070
     1
1070
    44
1040
1.0
1070
    74
1070
     0
1000
MTEXTEND
  0
INSERT
  5
D19D
  8
COTATION1
 62
     0
  2
_OPEN30
 10
-44.603176
 20
70.481314
 30
0.0
 41
5.0
 42
5.0
 43
5.0
1001
ACAD
1000
RTLwPs
1070
   158
  0
INSERT
  5
D19E
  8
COTATION1
 62
     0
  2
_OPEN30
 10
-40.603176
 20
70.481314
 30
0.0
 41
5.0
 42
5.0
 43
5.0
 50
180.0
1001
ACAD
1000
RTLwPs
1070
   158
  0
POINT
  5
D19F
  8
DEFPOINTS
 62
     0
 10
-44.603176
 20
57.728457
 30
0.0
  0
POINT
  5
D1A0
  8
DEFPOINTS
 62
     0
 10
-40.603176
 20
59.728457
 30
0.0
  0
POINT
  5
D1A1
  8
DEFPOINTS
 62
     0
 10
-40.603176
 20
70.481314
 30
0.0
  0
ENDBLK
  5
D16C
  8
0
  0
ENDSEC
  0
SECTION
  2
ENTITIES
  0
INSERT
  5
A
  8
0
  2
COTE
 10
0.0
 20
0.0
 30
0.0
  0
INSERT
  5
17
  8
0
  2
COTE
 10
284.010391
 20
6.373258
 30
0.0
  0
INSERT
  5
72
  8
0
  2
FOND
 10
0.0
 20
0.0
 30
0.0
  0
POLYLINE
  5
C76E
  8
ALPHA
 66
     1
 10
0.0
 20
0.0
 30
0.0
 70
   128
210
0.0
220
0.0
230
-1.0
  0
VERTEX
  5
D23E
  8
ALPHA
 10
50.363484
 20
56.440208
 30
0.0
  0
VERTEX
  5
D23F
  8
ALPHA
 10
50.133805
 20
55.94747
 30
0.0
  0
VERTEX
  5
D240
  8
ALPHA
 10
50.055742
 20
55.37562
 30
0.0
  0
VERTEX
  5
D241
  8
ALPHA
 10
50.37293
 20
54.728457
 30
0.0
  0
SEQEND
  5
D242
  8
ALPHA
  0
POLYLINE
  5
C76F
  8
ALPHA
 66
     1
 10
0.0
 20
0.0
 30
0.0
 70
   128
210
0.0
220
0.0
230
-1.0
  0
VERTEX
  5
D243
  8
ALPHA
 10
53.213934
 20
57.976207
 30
0.0
  0
VERTEX
  5
D244
  8
ALPHA
 10
52.95136
 20
58.342615
 30
0.0
  0
VERTEX
  5
D245
  8
ALPHA
 10
52.556433
 20
58.413808
 30
0.0
  0
SEQEND
  5
D246
  8
ALPHA
  0
POLYLINE
  5
C770
  8
ALPHA
 66
     1
 10
0.0
 20
0.0
 30
0.0
 70
   128
  0
VERTEX
  5
D247
  8
ALPHA
 10
-56.119025
 20
56.728457
 30
0.0
  0
VERTEX
  5
D248
  8
ALPHA
 10
-56.403747
 20
63.035415
 30
0.0
  0
VERTEX
  5
D249
  8
ALPHA
 10
-56.924792
 20
69.214045
 30
0.0
  0
VERTEX
  5
D24A
  8
ALPHA
 10
-58.554122
 20
81.073691
 30
0.0
  0
VERTEX
  5
D24B
  8
ALPHA
 10
-59.601542
 20
86.698389
 30
0.0
  0
VERTEX
  5
D24C
  8
ALPHA
 10
-60.763553
 20
92.082127
 30
0.0
  0
VERTEX
  5
D24D
  8
ALPHA
 10
-62.009724
 20
97.196747
 30
0.0
  0
VERTEX
  5
D24E
  8
ALPHA
 10
-63.309622
 20
102.014089
 30
0.0
  0
SEQEND
  5
D24F
  8
ALPHA
  0
POLYLINE
  5
C771
  8
ALPHA
 66
     1
 10
0.0
 20
0.0
 30
0.0
 70
   128
210
0.0
220
0.0
230
-1.0
  0
VERTEX
  5
D250
  8
ALPHA
 10
70.281023
 20
58.22333
 30
0.0
  0
VERTEX
  5
D251
  8
ALPHA
 10
70.4421
 20
58.365784
 30
0.0
  0
VERTEX
  5
D252
  8
ALPHA
 10
70.603176
 20
58.780776
 30
0.0
  0
SEQEND
  5
D253
  8
ALPHA
  0
POLYLINE
  5
C772
  8
ALPHA
 66
     1
 10
0.0
 20
0.0
 30
0.0
 70
   128
210
0.0
220
0.0
230
-1.0
  0
VERTEX
  5
D254
  8
ALPHA
 10
57.780274
 20
54.728457
 30
0.0
  0
VERTEX
  5
D255
  8
ALPHA
 10
59.467334
 20
54.883982
 30
0.0
  0
VERTEX
  5
D256
  8
ALPHA
 10
61.38096
 20
55.250769
 30
0.0
  0
VERTEX
  5
D257
  8
ALPHA
 10
65.363653
 20
56.356367
 30
0.0
  0
VERTEX
  5
D258
  8
ALPHA
 10
67.170593
 20
56.964297
 30
0.0
  0
VERTEX
  5
D259
  8
ALPHA
 10
68.679844
 20
57.521728
 30
0.0
  0
VERTEX
  5
D25A
  8
ALPHA
 10
69.760342
 20
57.963219
 30
0.0
  0
VERTEX
  5
D25B
  8
ALPHA
 10
70.281023
 20
58.22333
 30
0.0
  0
SEQEND
  5
D25C
  8
ALPHA
  0
POLYLINE
  5
C773
  8
ALPHA
 66
     1
 10
0.0
 20
0.0
 30
0.0
 70
   128
210
0.0
220
0.0
230
-1.0
  0
VERTEX
  5
D25D
  8
ALPHA
 10
52.556433
 20
58.413808
 30
0.0
  0
VERTEX
  5
D25E
  8
ALPHA
 10
51.816591
 20
58.413808
 30
0.0
  0
VERTEX
  5
D25F
  8
ALPHA
 10
51.366639
 20
58.282761
 30
0.0
  0
VERTEX
  5
D260
  8
ALPHA
 10
51.202822
 20
58.087451
 30
0.0
  0
VERTEX
  5
D261
  8
ALPHA
 10
50.974143
 20
57.699099
 30
0.0
  0
VERTEX
  5
D262
  8
ALPHA
 10
50.578507
 20
56.893738
 30
0.0
  0
VERTEX
  5
D263
  8
ALPHA
 10
50.363484
 20
56.440208
 30
0.0
  0
SEQEND
  5
D264
  8
ALPHA
  0
LINE
  5
C774
  8
ALPHA
 10
-40.603176
 20
133.67456
 30
0.0
 11
-40.603176
 21
53.728457
 31
0.0
  0
DIMENSION
  5
C775
  8
COTATION1
  2
*D4
 10
-13.103176
 20
39.728457
 30
0.0
 11
-13.103176
 21
97.228457
 31
0.0
 13
-51.353176
 23
154.728457
 33
0.0
 14
-40.603176
 24
39.728457
 34
0.0
 50
90.0
  0
LINE
  5
C776
  8
ALPHA
 10
-65.603176
 20
133.67456
 30
0.0
 11
-65.603176
 21
102.014089
 31
0.0
  0
ARC
  5
C777
  8
ALPHA
 10
-36.93359
 20
106.515651
 30
0.0
 40
33.671021
 50
166.958519
 51
180.528913
  0
DIMENSION
  5
C778
  8
COTATION1
  2
*D3
 10
-40.603176
 20
189.728457
 30
0.0
 11
-55.603176
 21
192.978457
 31
0.0
 13
-70.603176
 23
106.204829
 33
0.0
 14
-40.603176
 24
133.67456
 34
0.0
  0
LINE
  5
C779
  8
AXE
 10
-53.103176
 20
159.728457
 30
0.0
 11
-53.103176
 21
23.728457
 31
0.0
  0
LINE
  5
C77A
  8
ALPHA
 10
-70.603176
 20
103.014089
 30
0.0
 11
-65.91907
 21
103.014089
 31
0.0
  0
LINE
  5
C77C
  8
AXE
 10
-75.603176
 20
86.228457
 30
0.0
 11
-25.603176
 21
86.228457
 31
0.0
  0
LINE
  5
C77D
  8
ALPHA
 10
-70.603176
 20
102.228457
 30
0.0
 11
-70.603176
 21
58.780776
 31
0.0
  0
LINE
  5
C77E
  8
ALPHA
 10
-70.603176
 20
102.228457
 30
0.0
 11
-70.603176
 21
106.204829
 31
0.0
  0
ARC
  5
C780
  8
ALPHA
 10
-214.945408
 20
55.387689
 30
0.0
 40
156.451664
 50
0.857269
 51
18.449068
  0
TEXT
  5
C781
  8
AXE
 10
-60.579367
 20
23.728457
 30
0.0
 40
8.0
  1
Y
 72
     2
 11
-54.103176
 21
23.728457
 31
0.0
  0
LINE
  5
C782
  8
ALPHA
 10
-57.780274
 20
54.728457
 30
0.0
 11
-40.603176
 21
54.728457
 31
0.0
  0
LINE
  5
C783
  8
ALPHA
 10
-52.629421
 20
59.728457
 30
0.0
 11
-40.603176
 21
59.728457
 31
0.0
  0
LINE
  5
C784
  8
ALPHA
 10
-64.603176
 20
53.728457
 30
0.0
 11
-40.603176
 21
53.728457
 31
0.0
  0
LINE
  5
C785
  8
ALPHA
 10
-52.629421
 20
59.728457
 30
0.0
 11
-53.630156
 21
56.728457
 31
0.0
  0
LINE
  5
C786
  8
ALPHA
 10
-58.511255
 20
57.728457
 30
0.0
 11
-56.146928
 21
57.728457
 31
0.0
  0
LINE
  5
C787
  8
ALPHA
 10
-56.119025
 20
56.728457
 30
0.0
 11
-53.630156
 21
56.728457
 31
0.0
  0
LINE
  5
C788
  8
ALPHA
 10
-65.253652
 20
56.331078
 30
0.0
 11
-64.603176
 21
53.728457
 31
0.0
  0
TEXT
  5
C78A
  8
AXE
 10
-32.079367
 20
87.228457
 30
0.0
 40
8.0
  1
Z
 72
     2
 11
-25.603176
 21
87.228457
 31
0.0
  0
LINE
  5
C78C
  8
ALPHA
 10
-65.603176
 20
102.014089
 30
0.0
 11
-63.309622
 21
102.014089
 31
0.0
  0
LINE
  5
C78D
  8
ALPHA
 10
-65.603176
 20
104.898623
 30
0.0
 11
-66.534523
 21
104.898623
 31
0.0
  0
LINE
  5
C78E
  8
ALPHA
 10
-68.266349
 20
115.314173
 30
0.0
 11
-65.603176
 21
115.314173
 31
0.0
  0
ARC
  5
C78F
  8
ALPHA
 10
-68.266349
 20
113.814173
 30
0.0
 40
1.5
 50
90.0
 51
168.480193
  0
LINE
  5
C794
  8
ALPHA
 10
-65.603176
 20
116.028457
 30
0.0
 11
-40.603176
 21
116.028457
 31
0.0
  0
LINE
  5
C79F
  8
ALPHA
 10
-65.603176
 20
118.728457
 30
0.0
 11
-40.603176
 21
118.728457
 31
0.0
  0
LINE
  5
C7D2
  8
ALPHA
 10
-46.103176
 20
47.728457
 30
0.0
 11
-40.603176
 21
47.728457
 31
0.0
  0
LINE
  5
C7D3
  8
ALPHA
 10
-52.603176
 20
49.228457
 30
0.0
 11
-40.903176
 21
49.228457
 31
0.0
  0
LINE
  5
C7D4
  8
ALPHA
 10
-52.603176
 20
39.728457
 30
0.0
 11
-40.603176
 21
39.728457
 31
0.0
  0
LINE
  5
C7D5
  8
ALPHA
 10
-46.103176
 20
47.728457
 30
0.0
 11
-46.103176
 21
39.728457
 31
0.0
  0
LINE
  5
C7D6
  8
ALPHA
 10
-59.103176
 20
47.728457
 30
0.0
 11
-59.103176
 21
39.728457
 31
0.0
  0
LINE
  5
C7D7
  8
ALPHA
 10
-64.603176
 20
47.728457
 30
0.0
 11
-64.603176
 21
39.728457
 31
0.0
  0
LINE
  5
C7D8
  8
ALPHA
 10
-52.603176
 20
39.728457
 30
0.0
 11
-64.603176
 21
39.728457
 31
0.0
  0
LINE
  5
C7D9
  8
ALPHA
 10
-52.603176
 20
49.228457
 30
0.0
 11
-64.303176
 21
49.228457
 31
0.0
  0
LINE
  5
C7DA
  8
ALPHA
 10
-59.103176
 20
47.728457
 30
0.0
 11
-64.603176
 21
47.728457
 31
0.0
  0
ARC
  5
C7DB
  8
ALPHA
 10
-68.742558
 20
51.192498
 30
0.0
 40
4.854438
 50
336.134766
 51
31.493383
  0
LINE
  5
C7DC
  8
ALPHA
 10
-64.303176
 20
49.228457
 30
0.0
 11
-64.603176
 21
47.728457
 31
0.0
  0
ARC
  5
C7DD
  8
ALPHA
 10
-52.603176
 20
34.395124
 30
0.0
 40
14.833333
 50
64.010766
 51
115.989234
  0
LINE
  5
C7DE
  8
ALPHA
 10
-40.603176
 20
47.728457
 30
0.0
 11
-40.603176
 21
39.728457
 31
0.0
  0
LINE
  5
C7DF
  8
ALPHA
 10
-40.903176
 20
49.228457
 30
0.0
 11
-40.603176
 21
47.728457
 31
0.0
  0
ARC
  5
C7E0
  8
ALPHA
 10
-36.463795
 20
51.192498
 30
0.0
 40
4.854438
 50
148.506617
 51
203.865234
  0
DIMENSION
  5
C80D
  8
COTATION1
  2
*D5
 10
-40.603176
 20
179.728457
 30
0.0
 11
-46.853176
 21
182.978457
 31
0.0
 13
-53.103176
 23
159.728457
 33
0.0
 14
-40.603176
 24
133.67456
 34
0.0
  0
LINE
  5
C895
  8
ALPHA
 10
-40.603176
 20
133.67456
 30
0.0
 11
-65.603176
 21
133.67456
 31
0.0
  0
LINE
  5
C896
  8
ALPHA
 10
-40.603176
 20
131.541916
 30
0.0
 11
-65.603176
 21
131.541916
 31
0.0
  0
LINE
  5
C898
  8
ALPHA
 10
-80.103176
 20
120.930987
 30
0.0
 11
-65.603176
 21
120.930987
 31
0.0
  0
LINE
  5
C899
  8
ALPHA
 10
-65.603176
 20
125.986992
 30
0.0
 11
-40.603176
 21
125.986992
 31
0.0
  0
LINE
  5
C89B
  8
ALPHA
 10
-80.103176
 20
121.428421
 30
0.0
 11
-65.603176
 21
121.428421
 31
0.0
  0
LINE
  5
C89C
  8
ALPHA
 10
-80.103176
 20
121.428421
 30
0.0
 11
-80.103176
 21
120.930987
 31
0.0
  0
LINE
  5
C89F
  8
ALPHA
 10
-70.153176
 20
125.428421
 30
0.0
 11
-65.603176
 21
125.428421
 31
0.0
  0
ARC
  5
C8A0
  8
ALPHA
 10
-70.153176
 20
121.428421
 30
0.0
 40
4.0
 50
90.0
 51
180.0
  0
DIMENSION
  5
C8CF
  8
COTATION1
  2
*D6
 10
-40.603176
 20
199.728457
 30
0.0
 11
-60.353176
 21
202.978457
 31
0.0
 13
-80.103176
 23
121.428421
 33
0.0
 14
-40.603176
 24
133.67456
 34
0.0
  0
LINE
  5
CA03
  8
ALPHA
 10
-47.103176
 20
147.67456
 30
0.0
 11
-48.103176
 21
148.67456
 31
0.0
  0
LINE
  5
CA04
  8
ALPHA
 10
-51.153176
 20
147.67456
 30
0.0
 11
-47.103176
 21
147.67456
 31
0.0
  0
LINE
  5
CA05
  8
ALPHA
 10
-53.103176
 20
135.67456
 30
0.0
 11
-45.353176
 21
135.67456
 31
0.0
  0
LINE
  5
CA06
  8
ALPHA
 10
-53.103176
 20
136.17456
 30
0.0
 11
-45.853176
 21
136.17456
 31
0.0
  0
LINE
  5
CA08
  8
ALPHA
 10
-45.353176
 20
133.67456
 30
0.0
 11
-60.853176
 21
133.67456
 31
0.0
  0
LINE
  5
CA18
  8
ALPHA
 10
-51.353176
 20
154.728457
 30
0.0
 11
-51.353176
 21
143.128457
 31
0.0
  0
LINE
  5
CA19
  8
ALPHA
 10
-54.853176
 20
154.728457
 30
0.0
 11
-54.853176
 21
143.128457
 31
0.0
  0
LINE
  5
CA1B
  8
ALPHA
 10
-51.353176
 20
143.128457
 30
0.0
 11
-53.103176
 21
143.128457
 31
0.0
  0
ARC
  5
CA1C
  8
ALPHA
 10
-48.604028
 20
149.510518
 30
0.0
 40
1.199688
 50
146.391657
 51
181.717551
  0
LINE
  5
CA1D
  8
ALPHA
 10
-49.603176
 20
151.67456
 30
0.0
 11
-49.603176
 21
150.17456
 31
0.0
  0
LINE
  5
CA1E
  8
ALPHA
 10
-49.803176
 20
149.546476
 30
0.0
 11
-49.803176
 21
148.67456
 31
0.0
  0
LINE
  5
CA1F
  8
ALPHA
 10
-51.153176
 20
148.67456
 30
0.0
 11
-48.103176
 21
148.67456
 31
0.0
  0
LINE
  5
CA20
  8
ALPHA
 10
-51.353176
 20
151.67456
 30
0.0
 11
-49.603176
 21
151.67456
 31
0.0
  0
LINE
  5
CA21
  8
ALPHA
 10
-53.103176
 20
140.17456
 30
0.0
 11
-51.153176
 21
140.17456
 31
0.0
  0
LINE
  5
CA22
  8
ALPHA
 10
-51.153176
 20
148.67456
 30
0.0
 11
-51.153176
 21
140.17456
 31
0.0
  0
ARC
  5
CA23
  8
ALPHA
 10
-57.602325
 20
149.510518
 30
0.0
 40
1.199688
 50
358.282449
 51
33.608343
  0
LINE
  5
CA24
  8
ALPHA
 10
-56.403176
 20
149.546476
 30
0.0
 11
-56.403176
 21
148.67456
 31
0.0
  0
LINE
  5
CA25
  8
ALPHA
 10
-56.603176
 20
151.67456
 30
0.0
 11
-56.603176
 21
150.17456
 31
0.0
  0
LINE
  5
CA26
  8
ALPHA
 10
-54.853176
 20
151.67456
 30
0.0
 11
-56.603176
 21
151.67456
 31
0.0
  0
LINE
  5
CA27
  8
ALPHA
 10
-59.103176
 20
147.67456
 30
0.0
 11
-58.103176
 21
148.67456
 31
0.0
  0
LINE
  5
CA28
  8
ALPHA
 10
-59.103176
 20
147.67456
 30
0.0
 11
-59.103176
 21
136.17456
 31
0.0
  0
LINE
  5
CA29
  8
ALPHA
 10
-55.053176
 20
148.67456
 30
0.0
 11
-58.103176
 21
148.67456
 31
0.0
  0
LINE
  5
CA2A
  8
ALPHA
 10
-55.053176
 20
147.67456
 30
0.0
 11
-59.103176
 21
147.67456
 31
0.0
  0
LINE
  5
CA2B
  8
ALPHA
 10
-53.103176
 20
140.17456
 30
0.0
 11
-55.053176
 21
140.17456
 31
0.0
  0
LINE
  5
CA2C
  8
ALPHA
 10
-53.103176
 20
136.17456
 30
0.0
 11
-60.353176
 21
136.17456
 31
0.0
  0
LINE
  5
CA2D
  8
ALPHA
 10
-53.103176
 20
135.67456
 30
0.0
 11
-60.853176
 21
135.67456
 31
0.0
  0
LINE
  5
CA2E
  8
ALPHA
 10
-55.053176
 20
148.67456
 30
0.0
 11
-55.053176
 21
140.17456
 31
0.0
  0
LINE
  5
CA2F
  8
ALPHA
 10
-54.853176
 20
143.128457
 30
0.0
 11
-53.103176
 21
143.128457
 31
0.0
  0
LINE
  5
CA30
  8
ALPHA
 10
-60.853176
 20
135.67456
 30
0.0
 11
-60.853176
 21
133.67456
 31
0.0
  0
LINE
  5
CA31
  8
ALPHA
 10
-60.853176
 20
135.67456
 30
0.0
 11
-60.353176
 21
136.17456
 31
0.0
  0
LINE
  5
CA32
  8
ALPHA
 10
-51.353176
 20
154.728457
 30
0.0
 11
-53.103176
 21
154.728457
 31
0.0
  0
LINE
  5
CA33
  8
ALPHA
 10
-54.853176
 20
154.728457
 30
0.0
 11
-53.103176
 21
154.728457
 31
0.0
  0
LINE
  5
CA37
  8
ALPHA
 10
-45.353176
 20
135.67456
 30
0.0
 11
-45.353176
 21
133.67456
 31
0.0
  0
LINE
  5
CA38
  8
ALPHA
 10
-45.353176
 20
135.67456
 30
0.0
 11
-45.853176
 21
136.17456
 31
0.0
  0
LINE
  5
CA39
  8
ALPHA
 10
-47.103176
 20
147.67456
 30
0.0
 11
-47.103176
 21
136.17456
 31
0.0
  0
DIMENSION
  5
CC99
  8
COTATION1
  2
*D7
 10
-51.353176
 20
169.800262
 30
0.0
 11
-66.603176
 21
169.800262
 31
0.0
 70
   128
 13
-54.853176
 23
155.300262
 33
0.0
 14
-51.353176
 24
154.728457
 34
0.0
  0
LINE
  5
CDF5
  8
ALPHA
 10
-74.153176
 20
121.428421
 30
0.0
 11
-74.153176
 21
120.930987
 31
0.0
  0
DIMENSION
  5
D15B
  8
COTATION1
  2
*D8
 10
-40.603176
 20
70.481314
 30
0.0
 11
-30.603176
 21
70.481314
 31
0.0
 70
   128
 13
-44.603176
 23
57.728457
 33
0.0
 14
-40.603176
 24
59.728457
 34
0.0
  0
LINE
  5
D15C
  8
POINTILLE_COURT
 10
-43.103176
 20
56.228457
 30
0.0
 11
-40.603176
 21
56.228457
 31
0.0
  0
LINE
  5
D15D
  8
POINTILLE_COURT
 10
-43.103176
 20
59.228457
 30
0.0
 11
-40.603176
 21
59.228457
 31
0.0
  0
ARC
  5
D15E
  8
POINTILLE_COURT
 10
-43.103176
 20
57.728457
 30
0.0
 40
1.5
 50
90.0
 51
270.0
  0
VIEWPORT
  5
494D
 67
     1
  8
0
 10
4.995325
 20
6.556512
 30
0.0
 40
22.70986
 41
13.988421
 68
    -1
 69
     1
1001
ACAD
1000
MVIEW
1002
{
1070
    16
1010
0.0
1020
0.0
1030
0.0
1010
0.0
1020
0.0
1030
1.0
1040
0.0
1040
13.988421
1040
4.995325
1040
6.556512
1040
50.0
1040
0.0
1040
0.0
1070
     0
1070
   100
1070
     1
1070
     1
1070
     0
1070
     0
1070
     0
1070
     0
1040
0.0
1040
0.0
1040
0.0
1040
10.0
1040
10.0
1040
10.0
1040
10.0
1070
     0
1002
{
1002
}
1002
}
  0
ENDSEC
  0
EOF
