  0
SECTION
  2
HEADER
  9
$ACADVER
  1
AC1009
  9
$INSBASE
 10
402.590624
 20
-1.041018
 30
0.0
  9
$EXTMIN
 10
147.951137
 20
-84.98036
 30
0.0
  9
$EXTMAX
 10
183.951137
 20
2.51964
 30
0.0
  9
$LIMMIN
 10
-407.970438
 20
-367.832444
  9
$LIMMAX
 10
429.804077
 20
234.370848
  9
$ORTHOMODE
 70
     1
  9
$REGENMODE
 70
     1
  9
$FILLMODE
 70
     1
  9
$QTEXTMODE
 70
     0
  9
$MIRRTEXT
 70
     1
  9
$DRAGMODE
 70
     2
  9
$LTSCALE
 40
10.0
  9
$OSMODE
 70
    32
  9
$ATTMODE
 70
     1
  9
$TEXTSIZE
 40
6.0
  9
$TRACEWID
 40
1.0
  9
$TEXTSTYLE
  7
ROMANS
  9
$CLAYER
  8
ALPHA
  9
$CELTYPE
  6
BYLAYER
  9
$CECOLOR
 62
   256
  9
$DIMSCALE
 40
1.0
  9
$DIMASZ
 40
5.0
  9
$DIMEXO
 40
2.0
  9
$DIMDLI
 40
0.38
  9
$DIMRND
 40
0.0
  9
$DIMDLE
 40
0.0
  9
$DIMEXE
 40
2.5
  9
$DIMTP
 40
0.0
  9
$DIMTM
 40
0.0
  9
$DIMTXT
 40
2.5
  9
$DIMCEN
 40
0.0
  9
$DIMTSZ
 40
0.0
  9
$DIMTOL
 70
     0
  9
$DIMLIM
 70
     0
  9
$DIMTIH
 70
     1
  9
$DIMTOH
 70
     1
  9
$DIMSE1
 70
     0
  9
$DIMSE2
 70
     0
  9
$DIMTAD
 70
     1
  9
$DIMZIN
 70
    12
  9
$DIMBLK
  1
OPEN30
  9
$DIMASO
 70
     1
  9
$DIMSHO
 70
     1
  9
$DIMPOST
  1

  9
$DIMAPOST
  1

  9
$DIMALT
 70
     0
  9
$DIMALTD
 70
     2
  9
$DIMALTF
 40
25.4
  9
$DIMLFAC
 40
1.0
  9
$DIMTOFL
 70
     0
  9
$DIMTVP
 40
0.0
  9
$DIMTIX
 70
     0
  9
$DIMSOXD
 70
     0
  9
$DIMSAH
 70
     0
  9
$DIMBLK1
  1

  9
$DIMBLK2
  1

  9
$DIMSTYLE
  2
SC_DEFAUT
  9
$DIMCLRD
 70
     0
  9
$DIMCLRE
 70
     0
  9
$DIMCLRT
 70
     0
  9
$DIMTFAC
 40
1.0
  9
$DIMGAP
 40
2.0
  9
$LUNITS
 70
     2
  9
$LUPREC
 70
     1
  9
$SKETCHINC
 40
0.1
  9
$FILLETRAD
 40
0.0
  9
$AUNITS
 70
     0
  9
$AUPREC
 70
     0
  9
$MENU
  1
acad
  9
$ELEVATION
 40
0.0
  9
$PELEVATION
 40
0.0
  9
$THICKNESS
 40
0.0
  9
$LIMCHECK
 70
     0
  9
$BLIPMODE
 70
     0
  9
$CHAMFERA
 40
0.0
  9
$CHAMFERB
 40
0.0
  9
$SKPOLY
 70
     0
  9
$TDCREATE
 40
2450373.687919
  9
$TDUPDATE
 40
2453028.639999
  9
$TDINDWG
 40
1.045084
  9
$TDUSRTIMER
 40
1.045084
  9
$USRTIMER
 70
     1
  9
$ANGBASE
 50
0.0
  9
$ANGDIR
 70
     0
  9
$PDMODE
 70
    32
  9
$PDSIZE
 40
0.0
  9
$PLINEWID
 40
0.0
  9
$COORDS
 70
     1
  9
$SPLFRAME
 70
     0
  9
$SPLINETYPE
 70
     6
  9
$SPLINESEGS
 70
     8
  9
$ATTDIA
 70
     0
  9
$ATTREQ
 70
     1
  9
$HANDLING
 70
     1
  9
$HANDSEED
  5
9E36
  9
$SURFTAB1
 70
     6
  9
$SURFTAB2
 70
     6
  9
$SURFTYPE
 70
     6
  9
$SURFU
 70
     6
  9
$SURFV
 70
     6
  9
$UCSNAME
  2

  9
$UCSORG
 10
0.0
 20
0.0
 30
0.0
  9
$UCSXDIR
 10
1.0
 20
0.0
 30
0.0
  9
$UCSYDIR
 10
0.0
 20
1.0
 30
0.0
  9
$PUCSNAME
  2

  9
$PUCSORG
 10
0.0
 20
0.0
 30
0.0
  9
$PUCSXDIR
 10
1.0
 20
0.0
 30
0.0
  9
$PUCSYDIR
 10
0.0
 20
1.0
 30
0.0
  9
$USERI1
 70
     0
  9
$USERI2
 70
     0
  9
$USERI3
 70
     0
  9
$USERI4
 70
     0
  9
$USERI5
 70
     0
  9
$USERR1
 40
0.0
  9
$USERR2
 40
0.0
  9
$USERR3
 40
0.0
  9
$USERR4
 40
0.0
  9
$USERR5
 40
0.0
  9
$WORLDVIEW
 70
     1
  9
$SHADEDGE
 70
     3
  9
$SHADEDIF
 70
    70
  9
$TILEMODE
 70
     1
  9
$MAXACTVP
 70
    16
  9
$PLIMCHECK
 70
     0
  9
$PEXTMIN
 10
-1.452248
 20
-0.437698
 30
0.0
  9
$PEXTMAX
 10
12.749749
 20
8.310198
 30
0.0
  9
$PLIMMIN
 10
0.0
 20
0.0
  9
$PLIMMAX
 10
12.0
 20
9.0
  9
$UNITMODE
 70
     0
  9
$VISRETAIN
 70
     0
  9
$PLINEGEN
 70
     0
  9
$PSLTSCALE
 70
     0
  0
ENDSEC
  0
SECTION
  2
TABLES
  0
TABLE
  2
VPORT
 70
     2
  0
VPORT
  2
*ACTIVE
 70
     0
 10
0.0
 20
0.0
 11
1.0
 21
1.0
 12
165.947804
 22
-41.231618
 13
0.0
 23
0.0
 14
1.0
 24
1.0
 15
10.0
 25
10.0
 16
0.0
 26
0.0
 36
1.0
 17
0.0
 27
0.0
 37
0.0
 40
88.200907
 41
1.466346
 42
50.0
 43
0.0
 44
0.0
 50
0.0
 51
0.0
 71
     0
 72
   100
 73
     1
 74
     0
 75
     0
 76
     0
 77
     0
 78
     0
  0
ENDTAB
  0
TABLE
  2
LTYPE
 70
     2
  0
LTYPE
  2
CONTINUOUS
 70
     0
  3
Solid line
 72
    65
 73
     0
 40
0.0
  0
LTYPE
  2
AXES2
 70
     0
  3
___ _ ___ _ ___ _ ___ _ ___ _ ___ _ ___ _ ___ _
 72
    65
 73
     4
 40
1.125
 49
0.75
 49
-0.125
 49
0.125
 49
-0.125
  0
ENDTAB
  0
TABLE
  2
LAYER
 70
     5
  0
LAYER
  2
0
 70
     0
 62
   255
  6
CONTINUOUS
  0
LAYER
  2
COTATION1
 70
     0
 62
     2
  6
CONTINUOUS
  0
LAYER
  2
AXE
 70
     0
 62
    80
  6
AXES2
  0
LAYER
  2
DEFPOINTS
 70
     0
 62
     7
  6
CONTINUOUS
  0
LAYER
  2
ALPHA
 70
     0
 62
   254
  6
CONTINUOUS
  0
ENDTAB
  0
TABLE
  2
STYLE
 70
     2
  0
STYLE
  2
ROMANS
 70
     0
 40
0.0
 41
1.0
 50
0.0
 71
     0
 42
6.0
  3
romans
  4

  0
STYLE
  2
STANDARD
 70
     0
 40
0.0
 41
1.0
 50
0.0
 71
     0
 42
0.2
  3
txt
  4

  0
ENDTAB
  0
TABLE
  2
VIEW
 70
     0
  0
ENDTAB
  0
TABLE
  2
UCS
 70
     0
  0
ENDTAB
  0
TABLE
  2
APPID
 70
     1
  0
APPID
  2
ACAD
 70
     0
  0
ENDTAB
  0
TABLE
  2
DIMSTYLE
 70
     1
  0
DIMSTYLE
  2
SC_DEFAUT
 70
     0
  3

  4

  5
OPEN30
  6

  7

 40
1.0
 41
5.0
 42
2.0
 43
0.38
 44
2.5
 45
0.0
 46
0.0
 47
0.0
 48
0.0
140
2.5
141
0.0
142
0.0
143
25.4
144
1.0
145
0.0
146
1.0
147
2.0
 71
     0
 72
     0
 73
     1
 74
     1
 75
     0
 76
     0
 77
     1
 78
    12
170
     0
171
     2
172
     0
173
     0
174
     0
175
     0
176
     0
177
     0
178
     0
  0
ENDTAB
  0
ENDSEC
  0
SECTION
  2
BLOCKS
  0
BLOCK
  8
0
  2
$MODEL_SPACE
 70
     0
 10
0.0
 20
0.0
 30
0.0
  3
$MODEL_SPACE
  1

  0
ENDBLK
  5
9E0F
  8
0
  0
BLOCK
 67
     1
  8
0
  2
$PAPER_SPACE
 70
     0
 10
0.0
 20
0.0
 30
0.0
  3
$PAPER_SPACE
  1

  0
ENDBLK
  5
9E0D
 67
     1
  8
0
  0
BLOCK
  8
0
  2
COTE
 70
     0
 10
0.0
 20
0.0
 30
0.0
  3
COTE
  1

  0
ENDBLK
  5
F
  8
0
  0
BLOCK
  8
0
  2
FOND
 70
     0
 10
0.0
 20
0.0
 30
0.0
  3
FOND
  1

  0
ENDBLK
  5
75
  8
0
  0
BLOCK
  8
0
  2
_OPEN30
 70
     0
 10
0.0
 20
0.0
 30
0.0
  3
_OPEN30
  1

  0
LINE
  5
4B05
  8
COTATION1
 62
     0
 10
-1.0
 20
0.267949
 30
0.0
 11
0.0
 21
0.0
 31
0.0
1001
ACAD
1000
RTLwPs
1070
   158
  0
LINE
  5
4B06
  8
COTATION1
 62
     0
 10
0.0
 20
0.0
 30
0.0
 11
-1.0
 21
-0.267949
 31
0.0
1001
ACAD
1000
RTLwPs
1070
   158
  0
LINE
  5
4B07
  8
COTATION1
 62
     0
 10
0.0
 20
0.0
 30
0.0
 11
-1.0
 21
0.0
 31
0.0
1001
ACAD
1000
RTLwPs
1070
   158
  0
ENDBLK
  5
4B09
  8
0
  0
BLOCK
  8
0
  2
*D3
 70
     1
 10
0.0
 20
0.0
 30
0.0
  3
*D3
  1

  0
LINE
  5
9C06
  8
COTATION1
 62
     0
 10
152.951137
 20
-14.98036
 30
0.0
 11
152.951137
 21
0.51964
 31
0.0
1001
ACAD
1000
RTLwPs
1070
   158
  0
LINE
  5
9C07
  8
COTATION1
 62
     0
 10
168.951137
 20
-14.98036
 30
0.0
 11
168.951137
 21
0.51964
 31
0.0
1001
ACAD
1000
RTLwPs
1070
   158
  0
LINE
  5
9C08
  8
COTATION1
 62
     0
 10
157.951137
 20
-1.98036
 30
0.0
 11
163.951137
 21
-1.98036
 31
0.0
1001
ACAD
1000
RTLwPs
1070
   158
  0
INSERT
  5
9C09
  8
COTATION1
 62
     0
  2
_OPEN30
 10
152.951137
 20
-1.98036
 30
0.0
 41
5.0
 42
5.0
 43
5.0
 50
180.0
1001
ACAD
1000
RTLwPs
1070
   158
  0
INSERT
  5
9C0A
  8
COTATION1
 62
     0
  2
_OPEN30
 10
168.951137
 20
-1.98036
 30
0.0
 41
5.0
 42
5.0
 43
5.0
1001
ACAD
1000
RTLwPs
1070
   158
  0
TEXT
  5
9C0B
  8
COTATION1
 62
     0
 10
158.391614
 20
0.01964
 30
0.0
 40
2.5
  1
16
1001
ACAD
1000
MTEXTBEGIN
1070
    73
1070
     1
1070
    44
1040
1.0
1070
    74
1070
     0
1000
MTEXTEND
  0
POINT
  5
9C0C
  8
DEFPOINTS
 62
     0
 10
152.951137
 20
-16.98036
 30
0.0
  0
POINT
  5
9C0D
  8
DEFPOINTS
 62
     0
 10
168.951137
 20
-16.98036
 30
0.0
  0
POINT
  5
9C0E
  8
DEFPOINTS
 62
     0
 10
168.951137
 20
-1.98036
 30
0.0
  0
ENDBLK
  5
9AEB
  8
0
  0
ENDSEC
  0
SECTION
  2
ENTITIES
  0
INSERT
  5
A
  8
0
  2
COTE
 10
0.0
 20
0.0
 30
0.0
  0
INSERT
  5
17
  8
0
  2
COTE
 10
284.010391
 20
6.373258
 30
0.0
  0
INSERT
  5
72
  8
0
  2
FOND
 10
0.0
 20
0.0
 30
0.0
  0
LINE
  5
9628
  8
ALPHA
 10
160.951137
 20
-17.497117
 30
0.0
 11
156.330556
 21
-17.327615
 31
0.0
  0
ARC
  5
9629
  8
ALPHA
 10
160.951137
 20
-74.23036
 30
0.0
 40
10.0
 50
61.642363
 51
118.357637
  0
LINE
  5
962A
  8
ALPHA
 10
168.950919
 20
-16.98036
 30
0.0
 11
152.951356
 21
-16.98036
 31
0.0
  0
LINE
  5
962B
  8
ALPHA
 10
168.566466
 20
-18.697945
 30
0.0
 11
153.335808
 21
-18.697945
 31
0.0
  0
LINE
  5
962C
  8
ALPHA
 10
168.251137
 20
-19.184478
 30
0.0
 11
153.651137
 21
-19.184478
 31
0.0
  0
LINE
  5
962D
  8
ALPHA
 10
167.956199
 20
-55.43036
 30
0.0
 11
153.946076
 21
-55.43036
 31
0.0
  0
LINE
  5
962E
  8
ALPHA
 10
153.951137
 20
-55.98036
 30
0.0
 11
167.951137
 21
-55.98036
 31
0.0
  0
LINE
  5
962F
  8
ALPHA
 10
153.651137
 20
-19.184478
 30
0.0
 11
153.651137
 21
-61.980324
 31
0.0
  0
LINE
  5
9630
  8
ALPHA
 10
152.951137
 20
-66.68036
 30
0.0
 11
152.951137
 21
-16.98036
 31
0.0
  0
LINE
  5
9631
  8
ALPHA
 10
155.651137
 20
-65.43036
 30
0.0
 11
155.651137
 21
-55.98036
 31
0.0
  0
LINE
  5
9632
  8
ALPHA
 10
153.905759
 20
-66.98036
 30
0.0
 11
153.946076
 21
-55.43036
 31
0.0
  0
LINE
  5
9633
  8
ALPHA
 10
153.911169
 20
-65.43036
 30
0.0
 11
156.201401
 21
-65.43036
 31
0.0
  0
LINE
  5
9634
  8
ALPHA
 10
153.251137
 20
-66.98036
 30
0.0
 11
153.416146
 21
-64.53183
 31
0.0
  0
ARC
  5
9635
  8
ALPHA
 10
153.251137
 20
-66.68036
 30
0.0
 40
0.3
 50
180.0
 51
270.0
  0
LINE
  5
9636
  8
ALPHA
 10
153.905759
 20
-66.98036
 30
0.0
 11
153.251137
 21
-66.98036
 31
0.0
  0
LINE
  5
9637
  8
ALPHA
 10
152.951137
 20
-62.915383
 30
0.0
 11
153.550653
 21
-63.042769
 31
0.0
  0
LINE
  5
9638
  8
ALPHA
 10
153.550653
 20
-63.042769
 30
0.0
 11
153.651139
 21
-61.980324
 31
0.0
  0
POLYLINE
  5
9639
  8
ALPHA
 66
     1
 10
0.0
 20
0.0
 30
0.0
 70
   128
  0
VERTEX
  5
9E15
  8
ALPHA
 10
152.951137
 20
-64.294539
 30
0.0
  0
VERTEX
  5
9E16
  8
ALPHA
 10
153.146498
 20
-64.472861
 30
0.0
  0
VERTEX
  5
9E17
  8
ALPHA
 10
153.416146
 20
-64.53183
 30
0.0
  0
SEQEND
  5
9E18
  8
ALPHA
  0
LINE
  5
963A
  8
ALPHA
 10
153.416146
 20
-64.53183
 30
0.0
 11
153.550653
 21
-63.042769
 31
0.0
  0
POLYLINE
  5
963B
  8
ALPHA
 66
     1
 10
0.0
 20
0.0
 30
0.0
 70
   128
210
0.0
220
0.0
230
-1.0
  0
VERTEX
  5
9E19
  8
ALPHA
 10
-152.951137
 20
-62.915383
 30
0.0
  0
VERTEX
  5
9E1A
  8
ALPHA
 10
-153.145625
 20
-62.331251
 30
0.0
  0
VERTEX
  5
9E1B
  8
ALPHA
 10
-153.651137
 20
-61.98036
 30
0.0
  0
SEQEND
  5
9E1C
  8
ALPHA
  0
LINE
  5
963C
  8
ALPHA
 10
153.923212
 20
-61.98036
 30
0.0
 11
153.651137
 21
-61.980324
 31
0.0
  0
LINE
  5
963D
  8
ALPHA
 10
155.601137
 20
-55.98036
 30
0.0
 11
155.601137
 21
-55.43036
 31
0.0
  0
LINE
  5
963E
  8
ALPHA
 10
152.951137
 20
-26.173747
 30
0.0
 11
152.963552
 21
-26.98036
 31
0.0
  0
LINE
  5
963F
  8
ALPHA
 10
152.963552
 20
-26.98036
 30
0.0
 11
152.951137
 21
-27.786974
 31
0.0
  0
LINE
  5
9640
  8
ALPHA
 10
152.951096
 20
-26.173719
 30
0.0
 11
152.958221
 21
-26.98036
 31
0.0
  0
LINE
  5
9641
  8
ALPHA
 10
152.95821
 20
-26.98036
 30
0.0
 11
152.951093
 21
-27.787
 31
0.0
  0
LINE
  5
9642
  8
ALPHA
 10
156.330556
 20
-17.327615
 30
0.0
 11
155.192766
 21
-17.234055
 31
0.0
  0
LINE
  5
9643
  8
ALPHA
 10
153.651137
 20
-19.184478
 30
0.0
 11
153.335808
 21
-18.697945
 31
0.0
  0
LINE
  5
9644
  8
ALPHA
 10
153.651137
 20
-19.184478
 30
0.0
 11
153.099312
 21
-18.989865
 31
0.0
  0
LINE
  5
9645
  8
ALPHA
 10
155.159197
 20
-17.230986
 30
0.0
 11
153.251137
 21
-17.027516
 31
0.0
  0
POLYLINE
  5
9646
  8
ALPHA
 66
     1
 10
0.0
 20
0.0
 30
0.0
 70
   128
210
0.0
220
0.0
230
-1.0
  0
VERTEX
  5
9E1D
  8
ALPHA
 10
-153.099312
 20
-18.989865
 30
0.0
  0
VERTEX
  5
9E1E
  8
ALPHA
 10
-153.172101
 20
-18.805919
 30
0.0
  0
VERTEX
  5
9E1F
  8
ALPHA
 10
-153.335808
 20
-18.697945
 30
0.0
  0
SEQEND
  5
9E20
  8
ALPHA
  0
LINE
  5
9647
  8
ALPHA
 10
153.251137
 20
-18.639887
 30
0.0
 11
153.335808
 21
-18.697945
 31
0.0
  0
POLYLINE
  5
9648
  8
ALPHA
 66
     1
 10
0.0
 20
0.0
 30
0.0
 70
   128
210
0.0
220
0.0
230
-1.0
  0
VERTEX
  5
9E21
  8
ALPHA
 10
-152.951137
 20
-18.932082
 30
0.0
  0
VERTEX
  5
9E22
  8
ALPHA
 10
-153.040461
 20
-18.72406
 30
0.0
  0
VERTEX
  5
9E23
  8
ALPHA
 10
-153.251137
 20
-18.639887
 30
0.0
  0
SEQEND
  5
9E24
  8
ALPHA
  0
LINE
  5
9649
  8
ALPHA
 10
153.044245
 20
-17.084955
 30
0.0
 11
153.251137
 21
-17.027516
 31
0.0
  0
LINE
  5
964A
  8
ALPHA
 10
152.951137
 20
-17.29036
 30
0.0
 11
153.044245
 21
-17.084955
 31
0.0
  0
LINE
  5
964B
  8
ALPHA
 10
152.951137
 20
-18.932082
 30
0.0
 11
153.099312
 21
-18.989865
 31
0.0
  0
LINE
  5
964C
  8
ALPHA
 10
153.251137
 20
-18.639887
 30
0.0
 11
153.251137
 21
-17.027516
 31
0.0
  0
LINE
  5
964D
  8
ALPHA
 10
155.192766
 20
-17.234055
 30
0.0
 11
155.159197
 21
-17.230986
 31
0.0
  0
LINE
  5
964E
  8
ALPHA
 10
168.951137
 20
-66.68036
 30
0.0
 11
168.951137
 21
-16.98036
 31
0.0
  0
LINE
  5
964F
  8
ALPHA
 10
168.251137
 20
-61.98036
 30
0.0
 11
168.251137
 21
-19.184478
 31
0.0
  0
LINE
  5
9654
  8
ALPHA
 10
167.996516
 20
-66.98036
 30
0.0
 11
167.956199
 21
-55.43036
 31
0.0
  0
LINE
  5
9655
  8
ALPHA
 10
166.251137
 20
-55.98036
 30
0.0
 11
166.251137
 21
-65.43036
 31
0.0
  0
POLYLINE
  5
9656
  8
ALPHA
 66
     1
 10
0.0
 20
0.0
 30
0.0
 70
   128
210
0.0
220
0.0
230
-1.0
  0
VERTEX
  5
9E25
  8
ALPHA
 10
-168.251137
 20
-61.98036
 30
0.0
  0
VERTEX
  5
9E26
  8
ALPHA
 10
-168.756702
 20
-62.331329
 30
0.0
  0
VERTEX
  5
9E27
  8
ALPHA
 10
-168.951137
 20
-62.915578
 30
0.0
  0
SEQEND
  5
9E28
  8
ALPHA
  0
POLYLINE
  5
9657
  8
ALPHA
 66
     1
 10
0.0
 20
0.0
 30
0.0
 70
   128
210
0.0
220
0.0
230
-1.0
  0
VERTEX
  5
9E29
  8
ALPHA
 10
-168.951137
 20
-64.294539
 30
0.0
  0
VERTEX
  5
9E2A
  8
ALPHA
 10
-168.755785
 20
-64.472874
 30
0.0
  0
VERTEX
  5
9E2B
  8
ALPHA
 10
-168.486129
 20
-64.531831
 30
0.0
  0
SEQEND
  5
9E2C
  8
ALPHA
  0
LINE
  5
9658
  8
ALPHA
 10
168.486129
 20
-64.53183
 30
0.0
 11
168.651137
 21
-66.98036
 31
0.0
  0
LINE
  5
9659
  8
ALPHA
 10
168.951137
 20
-62.915578
 30
0.0
 11
168.351664
 21
-63.042981
 31
0.0
  0
LINE
  5
965A
  8
ALPHA
 10
168.651137
 20
-66.98036
 30
0.0
 11
167.996516
 21
-66.98036
 31
0.0
  0
LINE
  5
965B
  8
ALPHA
 10
165.700874
 20
-65.43036
 30
0.0
 11
167.991106
 21
-65.43036
 31
0.0
  0
LINE
  5
965C
  8
ALPHA
 10
168.251137
 20
-61.98036
 30
0.0
 11
168.351664
 21
-63.042981
 31
0.0
  0
LINE
  5
965D
  8
ALPHA
 10
168.351664
 20
-63.042981
 30
0.0
 11
168.486129
 21
-64.53183
 31
0.0
  0
LINE
  5
965E
  8
ALPHA
 10
168.251137
 20
-61.98036
 30
0.0
 11
167.979063
 21
-61.98036
 31
0.0
  0
ARC
  5
965F
  8
ALPHA
 10
168.651137
 20
-66.68036
 30
0.0
 40
0.3
 50
270.0
 51
0.0
  0
LINE
  5
9660
  8
ALPHA
 10
166.301137
 20
-55.98036
 30
0.0
 11
166.301137
 21
-55.43036
 31
0.0
  0
LINE
  5
9661
  8
ALPHA
 10
167.951137
 20
-55.43036
 30
0.0
 11
167.951137
 21
-55.98036
 31
0.0
  0
LINE
  5
967C
  8
ALPHA
 10
168.651137
 20
-17.027516
 30
0.0
 11
166.742996
 21
-17.230993
 31
0.0
  0
LINE
  5
967D
  8
ALPHA
 10
168.566466
 20
-18.697945
 30
0.0
 11
168.251137
 21
-19.184478
 31
0.0
  0
LINE
  5
967E
  8
ALPHA
 10
168.802963
 20
-18.989865
 30
0.0
 11
168.251137
 21
-19.184478
 31
0.0
  0
LINE
  5
967F
  8
ALPHA
 10
165.571718
 20
-17.327615
 30
0.0
 11
160.951137
 21
-17.497117
 31
0.0
  0
LINE
  5
9680
  8
ALPHA
 10
166.709509
 20
-17.234055
 30
0.0
 11
165.571718
 21
-17.327615
 31
0.0
  0
LINE
  5
9681
  8
ALPHA
 10
166.742996
 20
-17.230993
 30
0.0
 11
166.709509
 21
-17.234055
 31
0.0
  0
LINE
  5
9682
  8
ALPHA
 10
168.951137
 20
-27.786974
 30
0.0
 11
168.938723
 21
-26.98036
 31
0.0
  0
LINE
  5
9683
  8
ALPHA
 10
168.938723
 20
-26.98036
 30
0.0
 11
168.951137
 21
-26.173747
 31
0.0
  0
LINE
  5
9684
  8
ALPHA
 10
168.951181
 20
-27.787002
 30
0.0
 11
168.944065
 21
-26.98036
 31
0.0
  0
LINE
  5
9685
  8
ALPHA
 10
168.944053
 20
-26.98036
 30
0.0
 11
168.951186
 21
-26.17372
 31
0.0
  0
POLYLINE
  5
9686
  8
ALPHA
 66
     1
 10
0.0
 20
0.0
 30
0.0
 70
   128
  0
VERTEX
  5
9E2D
  8
ALPHA
 10
168.802963
 20
-18.989865
 30
0.0
  0
VERTEX
  5
9E2E
  8
ALPHA
 10
168.730174
 20
-18.805919
 30
0.0
  0
VERTEX
  5
9E2F
  8
ALPHA
 10
168.566466
 20
-18.697945
 30
0.0
  0
SEQEND
  5
9E30
  8
ALPHA
  0
POLYLINE
  5
9687
  8
ALPHA
 66
     1
 10
0.0
 20
0.0
 30
0.0
 70
   128
  0
VERTEX
  5
9E31
  8
ALPHA
 10
168.951137
 20
-18.932082
 30
0.0
  0
VERTEX
  5
9E32
  8
ALPHA
 10
168.861814
 20
-18.72406
 30
0.0
  0
VERTEX
  5
9E33
  8
ALPHA
 10
168.651137
 20
-18.639887
 30
0.0
  0
SEQEND
  5
9E34
  8
ALPHA
  0
LINE
  5
9688
  8
ALPHA
 10
168.651137
 20
-18.639887
 30
0.0
 11
168.566466
 21
-18.697945
 31
0.0
  0
LINE
  5
9689
  8
ALPHA
 10
168.85803
 20
-17.084955
 30
0.0
 11
168.651137
 21
-17.027516
 31
0.0
  0
LINE
  5
968A
  8
ALPHA
 10
168.951137
 20
-17.29036
 30
0.0
 11
168.85803
 21
-17.084955
 31
0.0
  0
LINE
  5
968B
  8
ALPHA
 10
168.951137
 20
-18.932082
 30
0.0
 11
168.802963
 21
-18.989865
 31
0.0
  0
LINE
  5
968C
  8
ALPHA
 10
168.651137
 20
-18.639887
 30
0.0
 11
168.651137
 21
-17.027516
 31
0.0
  0
LINE
  5
99EB
  8
AXE
 10
160.951137
 20
-11.98036
 30
0.0
 11
160.951137
 21
-84.98036
 31
0.0
  0
TEXT
  5
99EC
  8
AXE
 10
153.474947
 20
-84.98036
 30
0.0
 40
8.0
  1
Y
 72
     2
 11
159.951137
 21
-84.98036
 31
0.0
  0
DIMENSION
  5
9ADF
  8
COTATION1
  2
*D3
 10
168.951137
 20
-1.98036
 30
0.0
 11
160.951137
 21
1.26964
 31
0.0
 13
152.951137
 23
-16.98036
 33
0.0
 14
168.951137
 24
-16.98036
 34
0.0
  0
LINE
  5
9D05
  8
AXE
 10
147.951137
 20
-40.582401
 30
0.0
 11
183.951137
 21
-40.582401
 31
0.0
  0
TEXT
  5
9D06
  8
AXE
 10
177.474947
 20
-39.582401
 30
0.0
 40
8.0
  1
Z
 72
     2
 11
183.951137
 21
-39.582401
 31
0.0
  0
VIEWPORT
  5
494D
 67
     1
  8
0
 10
4.995325
 20
6.556512
 30
0.0
 40
22.70986
 41
13.988421
 68
    -1
 69
     1
1001
ACAD
1000
MVIEW
1002
{
1070
    16
1010
0.0
1020
0.0
1030
0.0
1010
0.0
1020
0.0
1030
1.0
1040
0.0
1040
13.988421
1040
4.995325
1040
6.556512
1040
50.0
1040
0.0
1040
0.0
1070
     0
1070
   100
1070
     1
1070
     1
1070
     0
1070
     0
1070
     0
1070
     0
1040
0.0
1040
0.0
1040
0.0
1040
10.0
1040
10.0
1040
10.0
1040
10.0
1070
     0
1002
{
1002
}
1002
}
  0
ENDSEC
  0
EOF
