  0
SECTION
  2
HEADER
  9
$ACADVER
  1
AC1012
  9
$DWGCODEPAGE
  3
ANSI_1252
  9
$INSBASE
 10
0.0
 20
0.0
 30
0.0
  9
$EXTMIN
 10
1.542435
 20
0.804179
 30
-0.001526
  9
$EXTMAX
 10
98.090575
 20
352.318767
 30
0.0
  9
$LIMMIN
 10
21.500324
 20
168.366123
  9
$LIMMAX
 10
144.764979
 20
237.902791
  9
$ORTHOMODE
 70
     0
  9
$REGENMODE
 70
     1
  9
$FILLMODE
 70
     1
  9
$QTEXTMODE
 70
     0
  9
$MIRRTEXT
 70
     1
  9
$DRAGMODE
 70
     2
  9
$LTSCALE
 40
10.0
  9
$OSMODE
 70
    39
  9
$ATTMODE
 70
     1
  9
$TEXTSIZE
 40
0.2
  9
$TRACEWID
 40
0.05
  9
$TEXTSTYLE
  7
STANDARD
  9
$CLAYER
  8
0
  9
$CELTYPE
  6
CONTINUOUS
  9
$CECOLOR
 62
   256
  9
$CELTSCALE
 40
1.0
  9
$DELOBJ
 70
     1
  9
$DISPSILH
 70
     0
  9
$DIMSCALE
 40
1.0
  9
$DIMASZ
 40
0.18
  9
$DIMEXO
 40
0.0625
  9
$DIMDLI
 40
0.38
  9
$DIMRND
 40
0.0
  9
$DIMDLE
 40
0.0
  9
$DIMEXE
 40
0.18
  9
$DIMTP
 40
0.0
  9
$DIMTM
 40
0.0
  9
$DIMTXT
 40
0.18
  9
$DIMCEN
 40
0.09
  9
$DIMTSZ
 40
0.0
  9
$DIMTOL
 70
     0
  9
$DIMLIM
 70
     0
  9
$DIMTIH
 70
     1
  9
$DIMTOH
 70
     1
  9
$DIMSE1
 70
     0
  9
$DIMSE2
 70
     0
  9
$DIMTAD
 70
     0
  9
$DIMZIN
 70
     0
  9
$DIMBLK
  1

  9
$DIMASO
 70
     1
  9
$DIMSHO
 70
     1
  9
$DIMPOST
  1

  9
$DIMAPOST
  1

  9
$DIMALT
 70
     0
  9
$DIMALTD
 70
     2
  9
$DIMALTF
 40
25.4
  9
$DIMLFAC
 40
1.0
  9
$DIMTOFL
 70
     0
  9
$DIMTVP
 40
0.0
  9
$DIMTIX
 70
     0
  9
$DIMSOXD
 70
     0
  9
$DIMSAH
 70
     0
  9
$DIMBLK1
  1

  9
$DIMBLK2
  1

  9
$DIMSTYLE
  2
STANDARD
  9
$DIMCLRD
 70
     0
  9
$DIMCLRE
 70
     0
  9
$DIMCLRT
 70
     0
  9
$DIMTFAC
 40
1.0
  9
$DIMGAP
 40
0.09
  9
$DIMJUST
 70
     0
  9
$DIMSD1
 70
     0
  9
$DIMSD2
 70
     0
  9
$DIMTOLJ
 70
     1
  9
$DIMTZIN
 70
     0
  9
$DIMALTZ
 70
     0
  9
$DIMALTTZ
 70
     0
  9
$DIMFIT
 70
     3
  9
$DIMUPT
 70
     0
  9
$DIMUNIT
 70
     2
  9
$DIMDEC
 70
     4
  9
$DIMTDEC
 70
     4
  9
$DIMALTU
 70
     2
  9
$DIMALTTD
 70
     2
  9
$DIMTXSTY
  7
STANDARD
  9
$DIMAUNIT
 70
     0
  9
$LUNITS
 70
     2
  9
$LUPREC
 70
     4
  9
$SKETCHINC
 40
0.1
  9
$FILLETRAD
 40
0.0
  9
$AUNITS
 70
     0
  9
$AUPREC
 70
     0
  9
$MENU
  1
acad
  9
$ELEVATION
 40
0.0
  9
$PELEVATION
 40
0.0
  9
$THICKNESS
 40
0.0
  9
$LIMCHECK
 70
     0
  9
$BLIPMODE
 70
     0
  9
$CHAMFERA
 40
0.0
  9
$CHAMFERB
 40
0.0
  9
$CHAMFERC
 40
0.0
  9
$CHAMFERD
 40
0.0
  9
$SKPOLY
 70
     0
  9
$TDCREATE
 40
2453627.679171909
  9
$TDUPDATE
 40
2453689.696744641
  9
$TDINDWG
 40
0.1143944676
  9
$TDUSRTIMER
 40
0.1143939236
  9
$USRTIMER
 70
     1
  9
$ANGBASE
 50
0.0
  9
$ANGDIR
 70
     0
  9
$PDMODE
 70
     0
  9
$PDSIZE
 40
0.0
  9
$PLINEWID
 40
0.0
  9
$COORDS
 70
     0
  9
$SPLFRAME
 70
     0
  9
$SPLINETYPE
 70
     6
  9
$SPLINESEGS
 70
     8
  9
$ATTDIA
 70
     0
  9
$ATTREQ
 70
     1
  9
$HANDLING
 70
     1
  9
$HANDSEED
  5
AEC
  9
$SURFTAB1
 70
     6
  9
$SURFTAB2
 70
     6
  9
$SURFTYPE
 70
     6
  9
$SURFU
 70
     6
  9
$SURFV
 70
     6
  9
$UCSNAME
  2

  9
$UCSORG
 10
0.0
 20
0.0
 30
0.0
  9
$UCSXDIR
 10
1.0
 20
0.0
 30
0.0
  9
$UCSYDIR
 10
0.0
 20
1.0
 30
0.0
  9
$PUCSNAME
  2

  9
$PUCSORG
 10
0.0
 20
0.0
 30
0.0
  9
$PUCSXDIR
 10
1.0
 20
0.0
 30
0.0
  9
$PUCSYDIR
 10
0.0
 20
1.0
 30
0.0
  9
$USERI1
 70
     0
  9
$USERI2
 70
     0
  9
$USERI3
 70
     0
  9
$USERI4
 70
     0
  9
$USERI5
 70
     0
  9
$USERR1
 40
0.0
  9
$USERR2
 40
0.0
  9
$USERR3
 40
0.0
  9
$USERR4
 40
0.0
  9
$USERR5
 40
0.0
  9
$WORLDVIEW
 70
     1
  9
$SHADEDGE
 70
     3
  9
$SHADEDIF
 70
    70
  9
$TILEMODE
 70
     1
  9
$MAXACTVP
 70
    16
  9
$PINSBASE
 10
0.0
 20
0.0
 30
0.0
  9
$PLIMCHECK
 70
     0
  9
$PEXTMIN
 10
1.000000E+20
 20
1.000000E+20
 30
1.000000E+20
  9
$PEXTMAX
 10
-1.000000E+20
 20
-1.000000E+20
 30
-1.000000E+20
  9
$PLIMMIN
 10
0.0
 20
0.0
  9
$PLIMMAX
 10
12.0
 20
9.0
  9
$UNITMODE
 70
     0
  9
$VISRETAIN
 70
     0
  9
$PLINEGEN
 70
     1
  9
$PSLTSCALE
 70
     0
  9
$TREEDEPTH
 70
  3020
  9
$PICKSTYLE
 70
     1
  9
$CMLSTYLE
  2
STANDARD
  9
$CMLJUST
 70
     0
  9
$CMLSCALE
 40
1.0
  9
$SAVEIMAGES
 70
     0
  0
ENDSEC
  0
SECTION
  2
CLASSES
  0
CLASS
  1
LWPOLYLINE
  2
AcDbPolyline
  3
"AutoCAD"
 90
    32768
280
     0
281
     1
  0
CLASS
  1
IMAGE
  2
AcDbRasterImage
  3
ISM
 90
    32895
280
     0
281
     1
  0
CLASS
  1
OLE2FRAME
  2
AcDbOle2Frame
  3
""
 90
    32768
280
     0
281
     1
  0
CLASS
  1
HATCH
  2
AcDbHatch
  3
"ACAD_SEDONA"
 90
    32768
280
     0
281
     1
  0
CLASS
  1
DICTIONARYVAR
  2
AcDbDictionaryVar
  3
"AutoCAD"
 90
    32768
280
     0
281
     0
  0
CLASS
  1
RASTERVARIABLES
  2
AcDbRasterVariables
  3
ISM
 90
    32768
280
     0
281
     0
  0
CLASS
  1
IMAGEDEF
  2
AcDbRasterImageDef
  3
ISM
 90
    32768
280
     0
281
     0
  0
CLASS
  1
IMAGEDEF_REACTOR
  2
AcDbRasterImageDefReactor
  3
ISM
 90
    32769
280
     0
281
     0
  0
CLASS
  1
SPATIAL_FILTER
  2
AcDbSpatialFilter
  3
"Acad"
 90
    32768
280
     0
281
     0
  0
CLASS
  1
XRECORD
  2
AcDbXrecord
  3
"<Built In>"
 90
    32768
280
     0
281
     0
  0
CLASS
  1
SORTENTSTABLE
  2
AcDbSortentsTable
  3
"AutoCAD"
 90
    32768
280
     0
281
     0
  0
CLASS
  1
LAYER_INDEX
  2
AcDbLayerIndex
  3
"Acad"
 90
    32768
280
     0
281
     0
  0
CLASS
  1
SPATIAL_INDEX
  2
AcDbSpatialIndex
  3
"Acad"
 90
    32768
280
     0
281
     0
  0
CLASS
  1
OBJECT_PTR
  2
CAseDLPNTableRecord
  3
"ASE-LPNTableRecord"
 90
    32769
280
     0
281
     0
  0
CLASS
  1
LAYOUT
  2
AcDbLayout
  3
AutoCAD 2000
 90
    32768
280
     0
281
     0
  0
CLASS
  1
PLOTSETTINGS
  2
AcDbPlotSettings
  3
AutoCAD 2000
 90
    32768
280
     0
281
     0
  0
CLASS
  1
ACDBDICTIONARYWDFLT
  2
AcDbDictionaryWithDefault
  3
AutoCAD 2000
 90
    32768
280
     0
281
     0
  0
CLASS
  1
ACDBPLACEHOLDER
  2
AcDbPlaceHolder
  3
AutoCAD 2000
 90
    32768
280
     0
281
     0
  0
CLASS
  1
VBA_PROJECT
  2
AcDbVbaProject
  3
acad
 90
    32768
280
     0
281
     0
  0
CLASS
  1
WIPEOUT
  2
AcDbWipeout
  3
"WipeOut|Product Desc: Object Enabler for WipeOut entity^I^I^I^I^I^I|Company: Autodesk, Inc.^I^I^I^I^I^I|WEB Address: www.autodesk.com"
 90
    32895
280
     0
281
     1
  0
CLASS
  1
WIPEOUTVARIABLES
  2
AcDbWipeoutVariables
  3
"WipeOut|Product Desc:     WipeOut Dbx Application|Company:          Autodesk, Inc.|WEB Address:      www.autodesk.com"
 90
    32768
280
     0
281
     0
  0
CLASS
  1
RTEXT
  2
RText
  3
RText|AutoCAD Express Tool|expresstools@autodesk.com
 90
    32768
280
     0
281
     1
  0
CLASS
  1
ARCALIGNEDTEXT
  2
AcDbArcAlignedText
  3
ATEXT|AutoCAD Express Tool|expresstools@autodesk.com
 90
    32768
280
     0
281
     1
  0
CLASS
  1
TABLESTYLE
  2
AcDbTableStyle
  3
ObjectDBX Classes
 90
    34815
280
     0
281
     0
  0
CLASS
  1
ACAD_PROXY_OBJECT_WRAPPER
  2
AcDbProxyObjectWrapper
  3
AutoCAD 2000
 90
    32768
280
     0
281
     0
  0
CLASS
  1
LONG_TRANSACTION
  2
AcDbLongTransaction
  3
AutoCAD 2000
 90
    32768
280
     0
281
     0
  0
CLASS
  1
LWPOLYLINE
  2
AcDbPolyline
  3
"AutoCAD"
 90
    32768
280
     0
281
     1
  0
CLASS
  1
HATCH
  2
AcDbHatch
  3
"ACAD_SEDONA"
 90
    32768
280
     0
281
     1
  0
CLASS
  1
XRECORD
  2
AcDbXrecord
  3
"<Built In>"
 90
    32768
280
     0
281
     0
  0
ENDSEC
  0
SECTION
  2
TABLES
  0
TABLE
  2
VPORT
  5
7
100
AcDbSymbolTable
 70
     2
  0
VPORT
  5
AEB
100
AcDbSymbolTableRecord
100
AcDbViewportTableRecord
  2
*ACTIVE
 70
     0
 10
0.0
 20
0.0
 11
1.0
 21
1.0
 12
49.816505
 22
176.561473
 13
0.0
 23
0.0
 14
1.0
 24
1.0
 15
0.0
 25
0.0
 16
0.0
 26
0.0
 36
1.0
 17
0.0
 27
0.0
 37
0.0
 40
355.169852
 41
1.673611
 42
50.0
 43
0.0
 44
0.0
 50
0.0
 51
0.0
 71
     0
 72
   100
 73
     1
 74
     2
 75
     0
 76
     0
 77
     0
 78
     0
  0
ENDTAB
  0
TABLE
  2
LTYPE
  5
4
100
AcDbSymbolTable
 70
     2
  0
LTYPE
  5
11
102
{ACAD_XDICTIONARY
360
AAC
102
}
100
AcDbSymbolTableRecord
100
AcDbLinetypeTableRecord
  2
BYBLOCK
 70
     0
  3

 72
    65
 73
     0
 40
0.0
  0
LTYPE
  5
12
102
{ACAD_XDICTIONARY
360
AAE
102
}
100
AcDbSymbolTableRecord
100
AcDbLinetypeTableRecord
  2
BYLAYER
 70
     0
  3

 72
    65
 73
     0
 40
0.0
  0
LTYPE
  5
13
102
{ACAD_XDICTIONARY
360
AB0
102
}
100
AcDbSymbolTableRecord
100
AcDbLinetypeTableRecord
  2
CONTINUOUS
 70
     0
  3
Solid line
 72
    65
 73
     0
 40
0.0
  0
LTYPE
  5
FA
100
AcDbSymbolTableRecord
100
AcDbLinetypeTableRecord
  2
AXES2
 70
     0
  3
___ _ ___ _ ___ _ ___ _ ___ _ ___ _ ___ _ ___ _
 72
    65
 73
     4
 40
1.125
 49
0.75
 74
     0
 49
-0.125
 74
     0
 49
0.125
 74
     0
 49
-0.125
 74
     0
  0
ENDTAB
  0
TABLE
  2
LAYER
  5
2
100
AcDbSymbolTable
 70
     6
  0
LAYER
  5
14
100
AcDbSymbolTableRecord
100
AcDbLayerTableRecord
  2
0
 70
     0
 62
     7
  6
CONTINUOUS
  0
LAYER
  5
FC
100
AcDbSymbolTableRecord
100
AcDbLayerTableRecord
  2
COTATION1
 70
     0
 62
     2
  6
CONTINUOUS
  0
LAYER
  5
FD
100
AcDbSymbolTableRecord
100
AcDbLayerTableRecord
  2
AXE
 70
     0
 62
    80
  6
AXES2
  0
LAYER
  5
FE
102
{ACAD_XDICTIONARY
360
AE2
102
}
100
AcDbSymbolTableRecord
100
AcDbLayerTableRecord
  2
DEFPOINTS
 70
     0
 62
     7
  6
CONTINUOUS
  0
LAYER
  5
FF
100
AcDbSymbolTableRecord
100
AcDbLayerTableRecord
  2
ALPHA
 70
     0
 62
   254
  6
CONTINUOUS
  0
LAYER
  5
979
100
AcDbSymbolTableRecord
100
AcDbLayerTableRecord
  2
CALQUE_1
 70
     0
 62
   160
  6
CONTINUOUS
  0
ENDTAB
  0
TABLE
  2
STYLE
  5
3
100
AcDbSymbolTable
 70
     2
  0
STYLE
  5
17
102
{ACAD_XDICTIONARY
360
AB2
102
}
100
AcDbSymbolTableRecord
100
AcDbTextStyleTableRecord
  2
STANDARD
 70
     0
 40
0.0
 41
1.0
 50
0.0
 71
     0
 42
0.0
  3
txt
  4

  0
STYLE
  5
101
100
AcDbSymbolTableRecord
100
AcDbTextStyleTableRecord
  2
ROMANS
 70
     0
 40
0.0
 41
1.0
 50
0.0
 71
     0
 42
6.0
  3
romans
  4

  0
ENDTAB
  0
TABLE
  2
VIEW
  5
5
100
AcDbSymbolTable
 70
     0
  0
ENDTAB
  0
TABLE
  2
UCS
  5
6
100
AcDbSymbolTable
 70
     0
  0
ENDTAB
  0
TABLE
  2
APPID
  5
8
100
AcDbSymbolTable
 70
     1
  0
APPID
  5
16
100
AcDbSymbolTableRecord
100
AcDbRegAppTableRecord
  2
ACAD
 70
     0
  0
ENDTAB
  0
TABLE
  2
DIMSTYLE
  5
9
100
AcDbSymbolTable
 70
     2
  0
DIMSTYLE
105
18
102
{ACAD_XDICTIONARY
360
AAA
102
}
100
AcDbSymbolTableRecord
100
AcDbDimStyleTableRecord
  2
STANDARD
 70
     0
  3

  4

  5

  6

  7

 40
1.0
 41
0.18
 42
0.0625
 43
0.38
 44
0.18
 45
0.0
 46
0.0
 47
0.0
 48
0.0
140
0.18
141
0.09
142
0.0
143
25.4
144
1.0
145
0.0
146
1.0
147
0.09
 71
     0
 72
     0
 73
     1
 74
     1
 75
     0
 76
     0
 77
     0
 78
     0
170
     0
171
     2
172
     0
173
     0
174
     0
175
     0
176
     0
177
     0
178
     0
270
     2
271
     4
272
     4
273
     2
274
     2
340
17
275
     0
280
     0
281
     0
282
     0
283
     1
284
     0
285
     0
286
     0
287
     3
288
     0
  0
DIMSTYLE
105
102
102
{ACAD_XDICTIONARY
360
AE4
102
}
102
{ACAD_REACTORS
330
A51
102
}
100
AcDbSymbolTableRecord
100
AcDbDimStyleTableRecord
  2
SC_DEFAUT
 70
     0
  3

  4

  5
OPEN30
  6

  7

 40
1.0
 41
5.0
 42
2.0
 43
0.38
 44
2.5
 45
0.0
 46
0.0
 47
0.0
 48
0.0
140
2.5
141
0.0
142
0.0
143
25.4
144
1.0
145
0.0
146
1.0
147
2.0
 71
     0
 72
     0
 73
     1
 74
     1
 75
     0
 76
     0
 77
     1
 78
    12
170
     0
171
     2
172
     0
173
     0
174
     0
175
     0
176
     0
177
     0
178
     0
270
     2
271
     1
272
     1
273
     2
274
     2
340
101
275
     0
280
     0
281
     0
282
     0
283
     1
284
    12
285
    12
286
    12
287
     5
288
     0
  0
ENDTAB
  0
TABLE
  2
BLOCK_RECORD
  5
1
100
AcDbSymbolTable
 70
     2
  0
BLOCK_RECORD
  5
A
102
{ACAD_XDICTIONARY
360
1B0
102
}
100
AcDbSymbolTableRecord
100
AcDbBlockTableRecord
  2
*MODEL_SPACE
  0
BLOCK_RECORD
  5
B
102
{ACAD_XDICTIONARY
360
AD8
102
}
100
AcDbSymbolTableRecord
100
AcDbBlockTableRecord
  2
*PAPER_SPACE
  0
BLOCK_RECORD
  5
CF
100
AcDbSymbolTableRecord
100
AcDbBlockTableRecord
  2
_OPEN30
  0
BLOCK_RECORD
  5
A80
100
AcDbSymbolTableRecord
100
AcDbBlockTableRecord
  2
*D1
  0
ENDTAB
  0
ENDSEC
  0
SECTION
  2
BLOCKS
  0
BLOCK
  5
D
100
AcDbEntity
  8
0
100
AcDbBlockBegin
  2
*MODEL_SPACE
 70
     0
 10
0.0
 20
0.0
 30
0.0
  3
*MODEL_SPACE
  1

  0
ENDBLK
  5
E
100
AcDbEntity
  8
0
100
AcDbBlockEnd
  0
BLOCK
  5
F
100
AcDbEntity
 67
     1
  8
0
100
AcDbBlockBegin
  2
*PAPER_SPACE
 70
     0
 10
0.0
 20
0.0
 30
0.0
  3
*PAPER_SPACE
  1

  0
ENDBLK
  5
10
100
AcDbEntity
 67
     1
  8
0
100
AcDbBlockEnd
  0
BLOCK
  5
D0
100
AcDbEntity
  8
0
100
AcDbBlockBegin
  2
_OPEN30
 70
     0
 10
0.0
 20
0.0
 30
0.0
  3
_OPEN30
  1

  0
LINE
  5
D1
100
AcDbEntity
  8
COTATION1
 62
     0
100
AcDbLine
 10
-1.0
 20
0.267949
 30
0.0
 11
0.0
 21
0.0
 31
0.0
1001
ACAD
1000
RTLwPs
1070
   158
  0
LINE
  5
D2
100
AcDbEntity
  8
COTATION1
 62
     0
100
AcDbLine
 10
0.0
 20
0.0
 30
0.0
 11
-1.0
 21
-0.267949
 31
0.0
1001
ACAD
1000
RTLwPs
1070
   158
  0
LINE
  5
D3
100
AcDbEntity
  8
COTATION1
 62
     0
100
AcDbLine
 10
0.0
 20
0.0
 30
0.0
 11
-1.0
 21
0.0
 31
0.0
1001
ACAD
1000
RTLwPs
1070
   158
  0
ENDBLK
  5
D4
100
AcDbEntity
  8
0
100
AcDbBlockEnd
  0
BLOCK
  5
A8A
100
AcDbEntity
  8
0
100
AcDbBlockBegin
  2
*D1
 70
     1
 10
0.0
 20
0.0
 30
0.0
  3
*D1
  1

1001
ACAD
1000
RTLwPs
1070
   128
  0
LINE
  5
A96
100
AcDbEntity
  8
COTATION1
 62
     0
100
AcDbLine
 10
9.312691
 20
37.499722
 30
0.0
 11
9.312691
 21
0.814905
 31
0.0
1001
ACAD
1000
RTLwPs
1070
   158
  0
LINE
  5
A97
100
AcDbEntity
  8
COTATION1
 62
     0
100
AcDbLine
 10
79.302004
 20
55.23914
 30
0.0
 11
79.302004
 21
0.814905
 31
0.0
1001
ACAD
1000
RTLwPs
1070
   158
  0
LINE
  5
A98
100
AcDbEntity
  8
COTATION1
 62
     0
100
AcDbLine
 10
14.312691
 20
3.314905
 30
0.0
 11
74.302004
 21
3.314905
 31
0.0
1001
ACAD
1000
RTLwPs
1070
   158
  0
INSERT
  5
A99
100
AcDbEntity
  8
COTATION1
 62
     0
100
AcDbBlockReference
  2
_OPEN30
 10
9.312691
 20
3.314905
 30
0.0
 41
5.0
 42
5.0
 43
5.0
 50
180.0
1001
ACAD
1000
RTLwPs
1070
   158
  0
INSERT
  5
A9A
100
AcDbEntity
  8
COTATION1
 62
     0
100
AcDbBlockReference
  2
_OPEN30
 10
79.302004
 20
3.314905
 30
0.0
 41
5.0
 42
5.0
 43
5.0
1001
ACAD
1000
RTLwPs
1070
   158
  0
MTEXT
  5
A9B
100
AcDbEntity
  8
COTATION1
 62
     0
100
AcDbMText
 10
44.307348
 20
6.564905
 30
0.0
 40
2.5
 41
0.0
 71
     5
 72
     1
  1
\A1;70
  7
ROMANS
1001
ACAD
1000
MTEXTBEGIN
1070
    73
1070
     1
1070
    44
1040
1.0
1070
    74
1070
     0
1000
MTEXTEND
  0
POINT
  5
A9C
100
AcDbEntity
  8
DEFPOINTS
 62
     0
100
AcDbPoint
 10
9.312691
 20
39.499722
 30
0.0
1001
ACAD
1000
RTLwPs
1070
   128
  0
POINT
  5
A9D
100
AcDbEntity
  8
DEFPOINTS
 62
     0
100
AcDbPoint
 10
79.302004
 20
57.23914
 30
0.0
1001
ACAD
1000
RTLwPs
1070
   128
  0
POINT
  5
A9E
100
AcDbEntity
  8
DEFPOINTS
 62
     0
100
AcDbPoint
 10
79.302004
 20
3.314905
 30
0.0
1001
ACAD
1000
RTLwPs
1070
   128
  0
ENDBLK
  5
A8B
100
AcDbEntity
  8
0
100
AcDbBlockEnd
1001
ACAD
1000
RTLwPs
1070
   128
  0
ENDSEC
  0
SECTION
  2
ENTITIES
  0
SPLINE
  5
A00
100
AcDbEntity
  8
ALPHA
100
AcDbSpline
210
0.0
220
1.0
230
0.0
 70
    24
 71
     3
 72
     8
 73
     4
 74
     0
 42
0.0000001
 43
0.0000001
 40
0.4999883674373291
 40
0.4999883674373291
 40
0.4999883674373291
 40
0.4999883674373291
 40
1.0
 40
1.0
 40
1.0
 40
1.0
 10
41.92017955263361
 20
342.3116358264121
 30
0.0
 10
46.30788881385359
 20
342.3116358264121
 30
0.0
 10
50.69570015805448
 20
342.3116358264121
 30
0.0
 10
50.69570015805448
 20
342.3116358264121
 30
0.0
  0
SPLINE
  5
A01
100
AcDbEntity
  8
ALPHA
100
AcDbSpline
210
0.0
220
0.0
230
1.0
 70
     8
 71
     3
 72
     8
 73
     4
 74
     0
 42
0.0000001
 43
0.0000001
 40
1.0
 40
1.0
 40
1.0
 40
1.0
 40
2.0
 40
2.0
 40
2.0
 40
2.0
 10
50.69570015805448
 20
342.3116358264121
 30
0.0
 10
52.39584638303006
 20
342.3116358264121
 30
0.0
 10
54.0562450341531
 20
340.6422377246055
 30
0.0
 10
54.0562450341531
 20
339.7910396807822
 30
0.0
  0
SPLINE
  5
A02
100
AcDbEntity
  8
ALPHA
100
AcDbSpline
210
-1.0
220
0.0
230
0.0
 70
    24
 71
     3
 72
     8
 73
     4
 74
     0
 42
0.0000001
 43
0.0000001
 40
2.0
 40
2.0
 40
2.0
 40
2.0
 40
3.0
 40
3.0
 40
3.0
 40
3.0
 10
54.0562450341531
 20
339.7910396807822
 30
0.0
 10
54.0562450341531
 20
339.7910396807822
 30
0.0
 10
54.0562450341531
 20
339.0943322070272
 30
0.0
 10
54.0562450341531
 20
339.0943322070272
 30
0.0
  0
SPLINE
  5
A03
100
AcDbEntity
  8
ALPHA
100
AcDbSpline
210
0.0
220
0.0
230
1.0
 70
     8
 71
     3
 72
     8
 73
     4
 74
     0
 42
0.0000001
 43
0.0000001
 40
3.0
 40
3.0
 40
3.0
 40
3.0
 40
4.0
 40
4.0
 40
4.0
 40
4.0
 10
54.0562450341531
 20
339.0943322070272
 30
0.0
 10
54.0562450341531
 20
338.2416342547567
 30
0.0
 10
52.39584638303006
 20
337.2711934893761
 30
0.0
 10
50.69570015805448
 20
337.2711934893761
 30
0.0
  0
SPLINE
  5
A04
100
AcDbEntity
  8
ALPHA
100
AcDbSpline
210
0.0
220
1.0
230
0.0
 70
    24
 71
     3
 72
     8
 73
     4
 74
     0
 42
0.0000001
 43
0.0000001
 40
4.0
 40
4.0
 40
4.0
 40
4.0
 40
4.500011632562675
 40
4.500011632562675
 40
4.500011632562675
 40
4.500011632562675
 10
50.69570015805448
 20
337.2711934893761
 30
0.0
 10
50.69570015805448
 20
337.2711934893761
 30
0.0
 10
46.30788881385353
 20
337.2711934893761
 30
0.0
 10
41.9201795526335
 20
337.2711934893761
 30
0.0
  0
SPLINE
  5
A05
100
AcDbEntity
  8
ALPHA
100
AcDbSpline
210
0.0
220
1.0
230
0.0
 70
    24
 71
     3
 72
     8
 73
     4
 74
     0
 42
0.0000001
 43
0.0000001
 40
0.4863163700872894
 40
0.4863163700872894
 40
0.4863163700872894
 40
0.4863163700872894
 40
1.0
 40
1.0
 40
1.0
 40
1.0
 10
41.92017955265169
 20
324.0007535021934
 30
0.0
 10
46.80616601342745
 20
324.0007535021934
 30
0.0
 10
51.82963094418721
 20
324.0007535021934
 30
0.0
 10
51.82963094418721
 20
324.0007535021934
 30
0.0
  0
SPLINE
  5
A06
100
AcDbEntity
  8
ALPHA
100
AcDbSpline
210
0.0
220
0.0
230
1.0
 70
     8
 71
     3
 72
    11
 73
     7
 74
     0
 42
0.0000001
 43
0.0000001
 40
1.0
 40
1.0
 40
1.0
 40
1.0
 40
2.0
 40
2.0
 40
2.0
 40
3.0
 40
3.0
 40
3.0
 40
3.0
 10
51.82963094418721
 20
324.0007535021934
 30
0.0
 10
53.72176545041281
 20
324.0007535021934
 30
0.0
 10
55.25467188351831
 20
322.8503237231407
 30
0.0
 10
55.25467188351831
 20
321.431410332027
 30
0.0
 10
55.25467188351831
 20
320.0147468035847
 30
0.0
 10
53.72176545041281
 20
318.8613172076375
 30
0.0
 10
51.82963094418721
 20
318.8613172076375
 30
0.0
  0
SPLINE
  5
A07
100
AcDbEntity
  8
ALPHA
100
AcDbSpline
210
0.0
220
1.0
230
0.0
 70
    24
 71
     3
 72
     8
 73
     4
 74
     0
 42
0.0000001
 43
0.0000001
 40
3.0
 40
3.0
 40
3.0
 40
3.0
 40
3.513683629912713
 40
3.513683629912713
 40
3.513683629912713
 40
3.513683629912713
 10
51.82963094418721
 20
318.8613172076375
 30
0.0
 10
51.82963094418721
 20
318.8613172076375
 30
0.0
 10
46.8061660134274
 20
318.8613172076375
 30
0.0
 10
41.92017955265169
 20
318.8613172076375
 30
0.0
  0
SPLINE
  5
A08
100
AcDbEntity
  8
ALPHA
100
AcDbSpline
210
0.0
220
1.0
230
0.0
 70
    24
 71
     3
 72
     8
 73
     4
 74
     0
 42
0.0000001
 43
0.0000001
 40
0.4877964700764007
 40
0.4877964700764007
 40
0.4877964700764007
 40
0.4877964700764007
 40
1.0
 40
1.0
 40
1.0
 40
1.0
 10
41.92017955264202
 20
305.5316308367882
 30
0.0
 10
47.00071709031902
 20
305.5316308367882
 30
0.0
 10
52.20835782712185
 20
305.5316308367882
 30
0.0
 10
52.20835782712185
 20
305.5316308367882
 30
0.0
  0
SPLINE
  5
A09
100
AcDbEntity
  8
ALPHA
100
AcDbSpline
210
0.0
220
0.0
230
1.0
 70
     8
 71
     3
 72
    11
 73
     7
 74
     0
 42
0.0000001
 43
0.0000001
 40
1.0
 40
1.0
 40
1.0
 40
1.0
 40
2.0
 40
2.0
 40
2.0
 40
3.0
 40
3.0
 40
3.0
 40
3.0
 10
52.20835782712185
 20
305.5316308367882
 30
0.0
 10
54.30822965329372
 20
305.5316308367882
 30
0.0
 10
56.01437551205839
 20
303.6702444537315
 30
0.0
 10
56.01437551205839
 20
302.4088214495809
 30
0.0
 10
56.01437551205839
 20
301.1496483081014
 30
0.0
 10
54.30822965329372
 20
300.125210838619
 30
0.0
 10
52.20835782712185
 20
300.125210838619
 30
0.0
  0
SPLINE
  5
A0A
100
AcDbEntity
  8
ALPHA
100
AcDbSpline
210
0.0
220
1.0
230
0.0
 70
    24
 71
     3
 72
     8
 73
     4
 74
     0
 42
0.0000001
 43
0.0000001
 40
3.0
 40
3.0
 40
3.0
 40
3.0
 40
3.512203529923598
 40
3.512203529923598
 40
3.512203529923598
 40
3.512203529923598
 10
52.20835782712185
 20
300.125210838619
 30
0.0
 10
52.20835782712185
 20
300.125210838619
 30
0.0
 10
47.00071709031902
 20
300.125210838619
 30
0.0
 10
41.92017955264208
 20
300.125210838619
 30
0.0
  0
SPLINE
  5
A0B
100
AcDbEntity
  8
ALPHA
100
AcDbSpline
210
0.0
220
1.0
230
0.0
 70
    24
 71
     3
 72
     8
 73
     4
 74
     0
 42
0.0000001
 43
0.0000001
 40
0.4873881452841748
 40
0.4873881452841748
 40
0.4873881452841748
 40
0.4873881452841748
 40
1.0
 40
1.0
 40
1.0
 40
1.0
 10
41.920179552646
 20
286.7782755206258
 30
0.0
 10
47.86073032424428
 20
286.7782755206258
 30
0.0
 10
53.95500121396264
 20
286.7782755206258
 30
0.0
 10
53.95500121396264
 20
286.7782755206258
 30
0.0
  0
SPLINE
  5
A0C
100
AcDbEntity
  8
ALPHA
100
AcDbSpline
210
0.0
220
0.0
230
1.0
 70
     8
 71
     3
 72
    11
 73
     7
 74
     0
 42
0.0000001
 43
0.0000001
 40
1.0
 40
1.0
 40
1.0
 40
1.0
 40
2.0
 40
2.0
 40
2.0
 40
3.0
 40
3.0
 40
3.0
 40
3.0
 10
53.95500121396264
 20
286.7782755206258
 30
0.0
 10
56.90982085507584
 20
286.7782755206258
 30
0.0
 10
59.30892441647734
 20
285.3391133654745
 30
0.0
 10
59.30892441647734
 20
283.5647216723593
 30
0.0
 10
59.30892441647734
 20
281.794079750362
 30
0.0
 10
56.90982085507584
 20
280.3519177783162
 30
0.0
 10
53.95500121396264
 20
280.3519177783162
 30
0.0
  0
SPLINE
  5
A0D
100
AcDbEntity
  8
ALPHA
100
AcDbSpline
210
0.0
220
1.0
230
0.0
 70
    24
 71
     3
 72
     8
 73
     4
 74
     0
 42
0.0000001
 43
0.0000001
 40
3.0
 40
3.0
 40
3.0
 40
3.0
 40
3.512611854715824
 40
3.512611854715824
 40
3.512611854715824
 40
3.512611854715824
 10
53.95500121396264
 20
280.3519177783162
 30
0.0
 10
53.95500121396264
 20
280.3519177783162
 30
0.0
 10
47.86073032424434
 20
280.3519177783162
 30
0.0
 10
41.92017955264605
 20
280.3519177783162
 30
0.0
  0
POLYLINE
  5
A0E
100
AcDbEntity
  8
ALPHA
100
AcDb2dPolyline
 66
     1
 10
0.0
 20
0.0
 30
0.0
 70
     1
  0
VERTEX
  5
A0F
100
AcDbEntity
  8
ALPHA
100
AcDbVertex
100
AcDb2dVertex
 10
31.864419
 20
213.864124
 30
0.0
  0
VERTEX
  5
A10
100
AcDbEntity
  8
ALPHA
100
AcDbVertex
100
AcDb2dVertex
 10
49.741826
 20
213.864124
 30
0.0
  0
VERTEX
  5
A11
100
AcDbEntity
  8
ALPHA
100
AcDbVertex
100
AcDb2dVertex
 10
49.741826
 20
191.516991
 30
0.0
  0
VERTEX
  5
A12
100
AcDbEntity
  8
ALPHA
100
AcDbVertex
100
AcDb2dVertex
 10
31.864419
 20
191.516991
 30
0.0
  0
SEQEND
  5
A13
100
AcDbEntity
  8
ALPHA
  0
SPLINE
  5
A14
100
AcDbEntity
  8
ALPHA
100
AcDbSpline
210
0.0
220
0.0
230
1.0
 70
    11
 71
     3
 72
    23
 73
    19
 74
     0
 42
0.0000001
 43
0.0000001
 40
0.0
 40
0.0
 40
0.0
 40
0.0
 40
1.0
 40
1.0
 40
1.0
 40
2.0
 40
2.0
 40
2.0
 40
3.0
 40
3.0
 40
3.0
 40
4.0
 40
4.0
 40
4.0
 40
5.0
 40
5.0
 40
5.0
 40
6.0
 40
6.0
 40
6.0
 40
6.0
 10
39.68494070470388
 20
207.1602846606406
 30
0.0
 10
39.68494070470388
 20
207.1602846606406
 30
0.0
 10
44.15466787755542
 20
207.1602846606406
 30
0.0
 10
44.15466787755542
 20
207.1602846606406
 30
0.0
 10
46.00480494725752
 20
207.1602846606406
 30
0.0
 10
47.506963257194
 20
206.1590957720907
 30
0.0
 10
47.506963257194
 20
204.9254210742147
 30
0.0
 10
47.506963257194
 20
203.6924963305626
 30
0.0
 10
46.00480494725752
 20
202.690557487789
 30
0.0
 10
44.15466787755542
 20
202.690557487789
 30
0.0
 10
44.15466787755542
 20
202.690557487789
 30
0.0
 10
39.68494070470388
 20
202.690557487789
 30
0.0
 10
39.68494070470388
 20
202.690557487789
 30
0.0
 10
37.83555358922535
 20
202.690557487789
 30
0.0
 10
36.33339527928876
 20
203.6924963305626
 30
0.0
 10
36.33339527928876
 20
204.9254210742147
 30
0.0
 10
36.33339527928876
 20
206.1590957720907
 30
0.0
 10
37.83555358922535
 20
207.1602846606406
 30
0.0
 10
39.68494070470388
 20
207.1602846606406
 30
0.0
  0
LINE
  5
A15
100
AcDbEntity
  8
ALPHA
100
AcDbLine
 10
45.27285
 20
218.333854
 30
0.0
 11
45.27285
 21
213.864124
 31
0.0
  0
LINE
  5
A16
100
AcDbEntity
  8
ALPHA
100
AcDbLine
 10
38.568258
 20
213.864124
 30
0.0
 11
38.568258
 21
218.333854
 31
0.0
  0
POLYLINE
  5
A17
100
AcDbEntity
  8
ALPHA
100
AcDb2dPolyline
 66
     1
 10
0.0
 20
0.0
 30
0.0
 70
     1
  0
VERTEX
  5
A18
100
AcDbEntity
  8
ALPHA
100
AcDbVertex
100
AcDb2dVertex
 10
36.333395
 20
191.516991
 30
0.0
  0
VERTEX
  5
A19
100
AcDbEntity
  8
ALPHA
100
AcDbVertex
100
AcDb2dVertex
 10
47.506964
 20
191.516991
 30
0.0
  0
VERTEX
  5
A1A
100
AcDbEntity
  8
ALPHA
100
AcDbVertex
100
AcDb2dVertex
 10
47.506964
 20
28.289408
 30
0.0
  0
VERTEX
  5
A1B
100
AcDbEntity
  8
ALPHA
100
AcDbVertex
100
AcDb2dVertex
 10
36.333395
 20
28.289408
 30
0.0
  0
SEQEND
  5
A1C
100
AcDbEntity
  8
ALPHA
  0
POLYLINE
  5
A1D
100
AcDbEntity
  8
ALPHA
100
AcDb2dPolyline
 66
     1
 10
0.0
 20
0.0
 30
0.0
 70
     1
  0
VERTEX
  5
A1E
100
AcDbEntity
  8
ALPHA
100
AcDbVertex
100
AcDb2dVertex
 10
67.823826
 20
173.200125
 30
0.0
  0
VERTEX
  5
A1F
100
AcDbEntity
  8
ALPHA
100
AcDbVertex
100
AcDb2dVertex
 10
76.763281
 20
173.200125
 30
0.0
  0
VERTEX
  5
A20
100
AcDbEntity
  8
ALPHA
100
AcDbVertex
100
AcDb2dVertex
 10
76.763281
 20
166.495537
 30
0.0
  0
VERTEX
  5
A21
100
AcDbEntity
  8
ALPHA
100
AcDbVertex
100
AcDb2dVertex
 10
67.823826
 20
166.495537
 30
0.0
  0
SEQEND
  5
A22
100
AcDbEntity
  8
ALPHA
  0
SPLINE
  5
A23
100
AcDbEntity
  8
ALPHA
100
AcDbSpline
210
0.0
220
0.0
230
1.0
 70
     8
 71
     3
 72
    11
 73
     7
 74
     0
 42
0.0000001
 43
0.0000001
 40
0.0
 40
0.0
 40
0.0
 40
0.0
 40
1.0
 40
1.0
 40
1.0
 40
2.0
 40
2.0
 40
2.0
 40
2.0
 10
67.82382638585613
 20
173.2001263812215
 30
0.0
 10
69.05750108373206
 20
173.2001263812215
 30
0.0
 10
70.05868997228197
 20
171.697968071285
 30
0.0
 10
70.05868997228197
 20
169.8485809558064
 30
0.0
 10
70.05868997228197
 20
167.9984438861045
 30
0.0
 10
69.05750108373206
 20
166.4955356219445
 30
0.0
 10
67.82382638585613
 20
166.4955356219445
 30
0.0
  0
POLYLINE
  5
A24
100
AcDbEntity
  8
ALPHA
100
AcDb2dPolyline
 66
     1
 10
0.0
 20
0.0
 30
0.0
 70
     1
  0
VERTEX
  5
A25
100
AcDbEntity
  8
ALPHA
100
AcDbVertex
100
AcDb2dVertex
 10
65.589712
 20
73.021176
 30
0.0
  0
VERTEX
  5
A26
100
AcDbEntity
  8
ALPHA
100
AcDbVertex
100
AcDb2dVertex
 10
76.763281
 20
73.021176
 30
0.0
  0
VERTEX
  5
A27
100
AcDbEntity
  8
ALPHA
100
AcDbVertex
100
AcDb2dVertex
 10
76.763281
 20
66.316584
 30
0.0
  0
VERTEX
  5
A28
100
AcDbEntity
  8
ALPHA
100
AcDbVertex
100
AcDb2dVertex
 10
65.589712
 20
66.316584
 30
0.0
  0
SEQEND
  5
A29
100
AcDbEntity
  8
ALPHA
  0
SPLINE
  5
A2A
100
AcDbEntity
  8
ALPHA
100
AcDbSpline
210
0.0
220
0.0
230
1.0
 70
     8
 71
     3
 72
    11
 73
     7
 74
     0
 42
0.0000001
 43
0.0000001
 40
0.0
 40
0.0
 40
0.0
 40
0.0
 40
1.0
 40
1.0
 40
1.0
 40
2.0
 40
2.0
 40
2.0
 40
2.0
 10
67.82382638585613
 20
73.02117624694432
 30
0.0
 10
69.05750108373206
 20
73.02117624694432
 30
0.0
 10
70.05868997228197
 20
71.51976789123153
 30
0.0
 10
70.05868997228197
 20
69.66888086730574
 30
0.0
 10
70.05868997228197
 20
67.81799384337995
 30
0.0
 10
69.05750108373206
 20
66.31658548766705
 30
0.0
 10
67.82382638585613
 20
66.31658548766705
 30
0.0
  0
LINE
  5
A2B
100
AcDbEntity
  8
ALPHA
100
AcDbLine
 10
76.763281
 20
180.343423
 30
0.0
 11
76.763281
 21
37.822823
 31
0.0
  0
SPLINE
  5
A2C
100
AcDbEntity
  8
ALPHA
100
AcDbSpline
210
-1.0
220
0.0
230
0.0
 70
    24
 71
     3
 72
     8
 73
     4
 74
     0
 42
0.0000001
 43
0.0000001
 40
0.0
 40
0.0
 40
0.0
 40
0.0
 40
1.0
 40
1.0
 40
1.0
 40
1.0
 10
11.54680497777508
 20
81.6801477130088
 30
0.0
 10
11.54680497777508
 20
81.6801477130088
 30
0.0
 10
11.54680497777508
 20
140.4602351763877
 30
0.0
 10
11.54680497777508
 20
140.4602351763877
 30
0.0
  0
SPLINE
  5
A2D
100
AcDbEntity
  8
ALPHA
100
AcDbSpline
210
-0.9925156743184174
220
-0.1221173052120665
230
0.0
 70
    24
 71
     3
 72
     8
 73
     4
 74
     0
 42
0.0000001
 43
0.0000001
 40
1.0
 40
1.0
 40
1.0
 40
1.0
 40
2.0
 40
2.0
 40
2.0
 40
2.0
 10
11.54680497777508
 20
140.4602351763877
 30
0.0
 10
11.54680497777508
 20
140.4602351763877
 30
0.0
 10
9.312691345572943
 20
158.6181268389853
 30
0.0
 10
9.312691345572943
 20
158.6181268389853
 30
0.0
  0
SPLINE
  5
A2E
100
AcDbEntity
  8
ALPHA
100
AcDbSpline
210
-1.0
220
0.0
230
0.0
 70
    24
 71
     3
 72
     8
 73
     4
 74
     0
 42
0.0000001
 43
0.0000001
 40
2.0
 40
2.0
 40
2.0
 40
2.0
 40
3.0
 40
3.0
 40
3.0
 40
3.0
 10
9.312691345572943
 20
158.6181268389853
 30
0.0
 10
9.312691345572943
 20
158.6181268389853
 30
0.0
 10
9.312691345572943
 20
180.3434215319784
 30
0.0
 10
9.312691345572943
 20
180.3434215319784
 30
0.0
  0
SPLINE
  5
A2F
100
AcDbEntity
  8
ALPHA
100
AcDbSpline
210
0.0
220
0.0
230
-1.0
 70
     8
 71
     3
 72
     8
 73
     4
 74
     0
 42
0.0000001
 43
0.0000001
 40
3.0
 40
3.0
 40
3.0
 40
3.0
 40
4.0
 40
4.0
 40
4.0
 40
4.0
 10
9.312691345572943
 20
180.3434215319784
 30
0.0
 10
9.312691345572943
 20
186.5132949298056
 30
0.0
 10
17.31620282018229
 20
191.5169895098837
 30
0.0
 10
20.69010012853198
 20
191.5169895098837
 30
0.0
  0
SPLINE
  5
A30
100
AcDbEntity
  8
ALPHA
100
AcDbSpline
210
0.0
220
1.0
230
0.0
 70
    24
 71
     3
 72
     8
 73
     4
 74
     0
 42
0.0000001
 43
0.0000001
 40
4.0
 40
4.0
 40
4.0
 40
4.0
 40
5.0
 40
5.0
 40
5.0
 40
5.0
 10
20.69010012853198
 20
191.5169895098837
 30
0.0
 10
20.69010012853198
 20
191.5169895098837
 30
0.0
 10
65.38512199437661
 20
191.5169895098837
 30
0.0
 10
65.38512199437661
 20
191.5169895098837
 30
0.0
  0
SPLINE
  5
A31
100
AcDbEntity
  8
ALPHA
100
AcDbSpline
210
0.0
220
0.0
230
1.0
 70
     8
 71
     3
 72
     8
 73
     4
 74
     0
 42
0.0000001
 43
0.0000001
 40
5.0
 40
5.0
 40
5.0
 40
5.0
 40
6.0
 40
6.0
 40
6.0
 40
6.0
 10
65.38512199437661
 20
191.5169895098837
 30
0.0
 10
68.75826934850261
 20
191.5169895098837
 30
0.0
 10
76.76328073155929
 20
186.5132949298056
 30
0.0
 10
76.76328073155929
 20
180.3434215319784
 30
0.0
  0
SPLINE
  5
A32
100
AcDbEntity
  8
ALPHA
100
AcDbSpline
210
-0.9751465147080496
220
-0.2215609957838777
230
0.0
 70
    24
 71
     3
 72
     8
 73
     4
 74
     0
 42
0.0000001
 43
0.0000001
 40
6.0
 40
6.0
 40
6.0
 40
6.0
 40
7.0
 40
7.0
 40
7.0
 40
7.0
 10
76.76328073155929
 20
180.3434215319784
 30
0.0
 10
76.76328073155929
 20
180.3434215319784
 30
0.0
 10
79.30200369298495
 20
169.1698535540732
 30
0.0
 10
79.30200369298495
 20
169.1698535540732
 30
0.0
  0
SPLINE
  5
A33
100
AcDbEntity
  8
ALPHA
100
AcDbSpline
210
-1.0
220
0.0
230
0.0
 70
    24
 71
     3
 72
     8
 73
     4
 74
     0
 42
0.0000001
 43
0.0000001
 40
7.0
 40
7.0
 40
7.0
 40
7.0
 40
8.0
 40
8.0
 40
8.0
 40
8.0
 10
79.30200369298495
 20
169.1698535540732
 30
0.0
 10
79.30200369298495
 20
169.1698535540732
 30
0.0
 10
79.30200369298495
 20
57.23913956481538
 30
0.0
 10
79.30200369298495
 20
57.23913956481538
 30
0.0
  0
SPLINE
  5
A34
100
AcDbEntity
  8
ALPHA
100
AcDbSpline
210
-0.9910585699708484
220
0.1334275492068155
230
0.0
 70
    24
 71
     3
 72
     8
 73
     4
 74
     0
 42
0.0000001
 43
0.0000001
 40
8.0
 40
8.0
 40
8.0
 40
8.0
 40
9.0
 40
9.0
 40
9.0
 40
9.0
 10
79.30200369298495
 20
57.23913956481538
 30
0.0
 10
79.30200369298495
 20
57.23913956481538
 30
0.0
 10
76.76328073155929
 20
38.38229056579206
 30
0.0
 10
76.76328073155929
 20
38.38229056579206
 30
0.0
  0
SPLINE
  5
A35
100
AcDbEntity
  8
ALPHA
100
AcDbSpline
210
0.0
220
0.0
230
1.0
 70
     8
 71
     3
 72
     8
 73
     4
 74
     0
 42
0.0000001
 43
0.0000001
 40
9.0
 40
9.0
 40
9.0
 40
9.0
 40
10.0
 40
10.0
 40
10.0
 40
10.0
 10
76.76328073155929
 20
38.38229056579206
 30
0.0
 10
76.76328073155929
 20
32.82962949401468
 30
0.0
 10
68.75826934850261
 20
28.29090653258896
 30
0.0
 10
65.38512199437661
 20
28.29090653258896
 30
0.0
  0
SPLINE
  5
A36
100
AcDbEntity
  8
ALPHA
100
AcDbSpline
210
0.0
220
1.0
230
0.0
 70
    24
 71
     3
 72
     8
 73
     4
 74
     0
 42
0.0000001
 43
0.0000001
 40
10.0
 40
10.0
 40
10.0
 40
10.0
 40
11.0
 40
11.0
 40
11.0
 40
11.0
 10
65.38512199437661
 20
28.29090653258896
 30
0.0
 10
65.38512199437661
 20
28.29090653258896
 30
0.0
 10
20.82884165990401
 20
28.29090653258896
 30
0.0
 10
20.82884165990401
 20
28.29090653258896
 30
0.0
  0
SPLINE
  5
A37
100
AcDbEntity
  8
ALPHA
100
AcDbSpline
210
0.0
220
0.0
230
-1.0
 70
     8
 71
     3
 72
     8
 73
     4
 74
     0
 42
0.0000001
 43
0.0000001
 40
11.0
 40
11.0
 40
11.0
 40
11.0
 40
12.0
 40
12.0
 40
12.0
 40
12.0
 10
20.82884165990401
 20
28.29090653258896
 30
0.0
 10
17.45569430577802
 20
28.29090653258896
 30
0.0
 10
9.730415848136431
 20
32.13217206603616
 30
0.0
 10
9.730415848136431
 20
37.68483313781342
 30
0.0
  0
SPLINE
  5
A38
100
AcDbEntity
  8
ALPHA
100
AcDbSpline
210
-0.9745199881058011
220
-0.2243006749483139
230
0.0
 70
    24
 71
     3
 72
     8
 73
     4
 74
     0
 42
0.0000001
 43
0.0000001
 40
12.0
 40
12.0
 40
12.0
 40
12.0
 40
13.0
 40
13.0
 40
13.0
 40
13.0
 10
9.730415848136431
 20
37.68483313781342
 30
0.0
 10
9.730415848136431
 20
37.68483313781342
 30
0.0
 10
9.312691345572943
 20
39.49972235900492
 30
0.0
 10
9.312691345572943
 20
39.49972235900492
 30
0.0
  0
SPLINE
  5
A39
100
AcDbEntity
  8
ALPHA
100
AcDbSpline
210
-1.0
220
0.0
230
0.0
 70
    24
 71
     3
 72
     8
 73
     4
 74
     0
 42
0.0000001
 43
0.0000001
 40
13.0
 40
13.0
 40
13.0
 40
13.0
 40
14.0
 40
14.0
 40
14.0
 40
14.0
 10
9.312691345572943
 20
39.49972235900492
 30
0.0
 10
9.312691345572943
 20
39.49972235900492
 30
0.0
 10
9.312691345572943
 20
64.08322180968849
 30
0.0
 10
9.312691345572943
 20
64.08322180968849
 30
0.0
  0
SPLINE
  5
A3A
100
AcDbEntity
  8
ALPHA
100
AcDbSpline
210
-0.9920366642711849
220
0.1259494213631029
230
0.0
 70
    24
 71
     3
 72
     8
 73
     4
 74
     0
 42
0.0000001
 43
0.0000001
 40
14.0
 40
14.0
 40
14.0
 40
14.0
 40
15.0
 40
15.0
 40
15.0
 40
15.0
 10
9.312691345572943
 20
64.08322180968849
 30
0.0
 10
9.312691345572943
 20
64.08322180968849
 30
0.0
 10
11.54680497777508
 20
81.6801477130088
 30
0.0
 10
11.54680497777508
 20
81.6801477130088
 30
0.0
  0
SPLINE
  5
A3B
100
AcDbEntity
  8
ALPHA
100
AcDbSpline
210
0.0
220
0.0
230
1.0
 70
     8
 71
     3
 72
    26
 73
    22
 74
     0
 42
0.0000001
 43
0.0000001
 40
0.0
 40
0.0
 40
0.0
 40
0.0
 40
1.0
 40
1.0
 40
1.0
 40
2.0
 40
2.0
 40
2.0
 40
3.0
 40
3.0
 40
3.0
 40
4.0
 40
4.0
 40
4.0
 40
5.0
 40
5.0
 40
5.0
 40
6.0
 40
6.0
 40
6.0
 40
7.0
 40
7.0
 40
7.0
 40
7.0
 10
20.96983305394701
 20
191.6564809954792
 30
0.0
 10
20.96983305394701
 20
194.7440425341755
 30
0.0
 10
18.3509929050212
 20
198.221580269161
 30
0.0
 10
16.5001058810954
 20
198.221580269161
 30
0.0
 10
16.5001058810954
 20
198.221580269161
 30
0.0
 10
16.22112290990401
 20
198.221580269161
 30
0.0
 10
16.22112290990401
 20
198.221580269161
 30
0.0
 10
11.28417425572922
 20
198.221580269161
 30
0.0
 10
7.281668564200913
 20
202.7243054278526
 30
0.0
 10
7.281668564200913
 20
208.2784664080771
 30
0.0
 10
7.281668564200913
 20
213.8311274798545
 30
0.0
 10
11.28417425572922
 20
218.3338526385459
 30
0.0
 10
16.22112290990401
 20
218.3338526385459
 30
0.0
 10
16.22112290990401
 20
218.3338526385459
 30
0.0
 10
60.91539482152507
 20
218.3338526385459
 30
0.0
 10
60.91539482152507
 20
218.3338526385459
 30
0.0
 10
63.38574403417158
 20
218.3338526385459
 30
0.0
 10
65.38512199437661
 20
216.8316943286093
 30
0.0
 10
65.38512199437661
 20
214.9830571673541
 30
0.0
 10
65.38512199437661
 20
214.9830571673541
 30
0.0
 10
65.38512199437661
 20
191.5169895098837
 30
0.0
 10
65.38512199437661
 20
191.5169895098837
 30
0.0
  0
CIRCLE
  5
A3C
100
AcDbEntity
  8
ALPHA
100
AcDbCircle
 10
16.220747
 20
209.395148
 30
0.0
 40
4.469351
  0
POLYLINE
  5
A3D
100
AcDbEntity
  8
ALPHA
100
AcDb2dPolyline
 66
     1
 10
0.0
 20
0.0
 30
0.0
  0
VERTEX
  5
A3E
100
AcDbEntity
  8
ALPHA
100
AcDbVertex
100
AcDb2dVertex
 10
51.654748
 20
324.000754
 30
0.0
  0
VERTEX
  5
A3F
100
AcDbEntity
  8
ALPHA
100
AcDbVertex
100
AcDb2dVertex
 10
51.23448
 20
337.302772
 30
0.0
  0
SEQEND
  5
A40
100
AcDbEntity
  8
ALPHA
  0
POLYLINE
  5
A41
100
AcDbEntity
  8
ALPHA
100
AcDb2dPolyline
 66
     1
 10
0.0
 20
0.0
 30
0.0
  0
VERTEX
  5
A42
100
AcDbEntity
  8
ALPHA
100
AcDbVertex
100
AcDb2dVertex
 10
52.919279
 20
305.460711
 30
0.0
  0
VERTEX
  5
A43
100
AcDbEntity
  8
ALPHA
100
AcDbVertex
100
AcDb2dVertex
 10
52.918566
 20
305.488131
 30
0.0
  0
VERTEX
  5
A44
100
AcDbEntity
  8
ALPHA
100
AcDbVertex
100
AcDb2dVertex
 10
51.937923
 20
318.86258
 30
0.0
  0
SEQEND
  5
A45
100
AcDbEntity
  8
ALPHA
  0
POLYLINE
  5
A46
100
AcDbEntity
  8
ALPHA
100
AcDb2dPolyline
 66
     1
 10
0.0
 20
0.0
 30
0.0
  0
VERTEX
  5
A47
100
AcDbEntity
  8
ALPHA
100
AcDbVertex
100
AcDb2dVertex
 10
54.456781
 20
286.764326
 30
0.0
  0
VERTEX
  5
A48
100
AcDbEntity
  8
ALPHA
100
AcDbVertex
100
AcDb2dVertex
 10
54.450721
 20
286.911769
 30
0.0
  0
VERTEX
  5
A49
100
AcDbEntity
  8
ALPHA
100
AcDbVertex
100
AcDb2dVertex
 10
53.056554
 20
300.182207
 30
0.0
  0
VERTEX
  5
A4A
100
AcDbEntity
  8
ALPHA
100
AcDbVertex
100
AcDb2dVertex
 10
53.056551
 20
300.182318
 30
0.0
  0
SEQEND
  5
A4B
100
AcDbEntity
  8
ALPHA
  0
POLYLINE
  5
A4C
100
AcDbEntity
  8
ALPHA
100
AcDb2dPolyline
 66
     1
 10
0.0
 20
0.0
 30
0.0
  0
VERTEX
  5
A4D
100
AcDbEntity
  8
ALPHA
100
AcDbVertex
100
AcDb2dVertex
 10
59.242998
 20
218.344351
 30
0.0
  0
VERTEX
  5
A4E
100
AcDbEntity
  8
ALPHA
100
AcDbVertex
100
AcDb2dVertex
 10
56.128368
 20
260.094906
 30
0.0
  0
VERTEX
  5
A4F
100
AcDbEntity
  8
ALPHA
100
AcDbVertex
100
AcDb2dVertex
 10
54.718996
 20
280.384499
 30
0.0
  0
SEQEND
  5
A50
100
AcDbEntity
  8
ALPHA
  0
DIMENSION
  5
A51
100
AcDbEntity
  8
COTATION1
100
AcDbDimension
  2
*D1
 10
79.302004
 20
3.314905
 30
0.0
 11
44.307348
 21
6.564905
 31
0.0
 70
    32
  3
SC_DEFAUT
100
AcDbAlignedDimension
 13
9.312691
 23
39.499722
 33
0.0
 14
79.302004
 24
57.23914
 34
0.0
100
AcDbRotatedDimension
  0
LEADER
  5
A52
100
AcDbEntity
  8
COTATION1
100
AcDbLeader
  3
SC_DEFAUT
 73
     0
 74
     0
 40
2.5
 41
15.0
 76
     2
 10
59.308924
 20
283.565347
 30
0.0
 10
80.971414
 20
279.024592
 30
0.0
 77
   256
213
0.0
223
-0.09
233
0.0
1001
ACAD
1000
DSTYLE
1002
{
1070
     5
1000
OPEN30
1002
}
1000
LEANOF
1010
0.0
1020
-0.09
1030
0.0
  0
LEADER
  5
A53
100
AcDbEntity
  8
COTATION1
100
AcDbLeader
  3
SC_DEFAUT
 73
     0
 74
     0
 40
2.5
 41
10.119048
 76
     2
 10
54.056245
 20
339.094332
 30
0.0
 10
80.971414
 20
333.7133
 30
0.0
 77
   256
213
0.0
223
-0.09
233
0.0
1001
ACAD
1000
DSTYLE
1002
{
1070
     5
1000
OPEN30
1002
}
1000
LEANOF
1010
0.0
1020
-0.09
1030
0.0
  0
MTEXT
  5
A54
102
{ACAD_REACTORS
330
A53
102
}
100
AcDbEntity
  8
COTATION1
100
AcDbMText
 10
82.971414
 20
338.3033
 30
0.0
 40
2.5
 41
0.0
 71
     1
 72
     1
  1
Ø8...10
  7
ROMANS
1001
ACAD
1000
MTEXTBEGIN
1070
    73
1070
     1
1070
    44
1040
1.0
1070
    74
1070
     0
1000
MTEXTEND
  0
LEADER
  5
A55
100
AcDbEntity
  8
COTATION1
100
AcDbLeader
  3
SC_DEFAUT
 73
     0
 74
     0
 40
2.5
 41
11.904762
 76
     2
 10
55.254672
 20
321.431433
 30
0.0
 10
80.971414
 20
315.794829
 30
0.0
 77
   256
213
0.0
223
-0.09
233
0.0
1001
ACAD
1000
DSTYLE
1002
{
1070
     5
1000
OPEN30
1002
}
1000
LEANOF
1010
0.0
1020
-0.09
1030
0.0
  0
MTEXT
  5
A56
102
{ACAD_REACTORS
330
A55
102
}
100
AcDbEntity
  8
COTATION1
100
AcDbMText
 10
82.971414
 20
320.384829
 30
0.0
 40
2.5
 41
0.0
 71
     1
 72
     1
  1
Ø11...14
  7
ROMANS
1001
ACAD
1000
MTEXTBEGIN
1070
    73
1070
     1
1070
    44
1040
1.0
1070
    74
1070
     0
1000
MTEXTEND
  0
LEADER
  5
A57
100
AcDbEntity
  8
COTATION1
100
AcDbLeader
  3
SC_DEFAUT
 73
     0
 74
     0
 40
2.5
 41
15.0
 76
     2
 10
55.994373
 20
302.653858
 30
0.0
 10
80.971414
 20
296.338946
 30
0.0
 77
   256
213
0.0
223
-0.09
233
0.0
1001
ACAD
1000
DSTYLE
1002
{
1070
     5
1000
OPEN30
1002
}
1000
LEANOF
1010
0.0
1020
-0.09
1030
0.0
  0
MTEXT
  5
A58
102
{ACAD_REACTORS
330
A57
102
}
100
AcDbEntity
  8
COTATION1
100
AcDbMText
 10
82.971414
 20
300.928946
 30
0.0
 40
2.5
 41
0.0
 71
     1
 72
     1
  1
Ø15...17
  7
ROMANS
1001
ACAD
1000
MTEXTBEGIN
1070
    73
1070
     1
1070
    44
1040
1.0
1070
    74
1070
     0
1000
MTEXTEND
  0
MTEXT
  5
A59
102
{ACAD_REACTORS
330
A52
102
}
100
AcDbEntity
  8
COTATION1
100
AcDbMText
 10
82.971414
 20
283.614592
 30
0.0
 40
2.5
 41
0.0
 71
     1
 72
     1
  1
Ø18...21
  7
ROMANS
1001
ACAD
1000
MTEXTBEGIN
1070
    73
1070
     1
1070
    44
1040
1.0
1070
    74
1070
     0
1000
MTEXTEND
  0
LINE
  5
A5A
100
AcDbEntity
  8
AXE
100
AcDbLine
 10
41.92018
 20
13.308309
 30
0.0
 11
41.92018
 21
352.308039
 31
0.0
  0
TEXT
  5
A5B
100
AcDbEntity
  8
AXE
100
AcDbText
 10
34.443989
 20
13.308309
 30
0.0
 40
8.0
  1
Y
  7
ROMANS
 72
     2
 11
40.92018
 21
13.308309
 31
0.0
100
AcDbText
  0
LINE
  5
A5C
100
AcDbEntity
  8
AXE
100
AcDbLine
 10
1.546805
 20
128.698891
 30
0.0
 11
94.302004
 21
128.698891
 31
0.0
  0
TEXT
  5
A5D
100
AcDbEntity
  8
AXE
100
AcDbText
 10
87.825813
 20
129.698891
 30
0.0
 40
8.0
  1
Z
  7
ROMANS
 72
     2
 11
94.302004
 21
129.698891
 31
0.0
100
AcDbText
  0
SPLINE
  5
A5E
100
AcDbEntity
  8
ALPHA
100
AcDbSpline
210
-0.0006250806165168
220
0.9999998046370924
230
0.0
 70
    24
 71
     3
 72
     8
 73
     4
 74
     0
 42
0.0000001
 43
0.0000001
 40
0.4999883674373291
 40
0.4999883674373291
 40
0.4999883674373291
 40
0.4999883674373291
 40
1.0
 40
1.0
 40
1.0
 40
1.0
 10
41.92642811058505
 20
342.3116377793385
 30
0.0
 10
37.53871970656069
 20
342.3088951073284
 30
0.0
 10
33.15090921957539
 20
342.3061523715082
 30
0.0
 10
33.15090921957539
 20
342.3061523715082
 30
0.0
  0
SPLINE
  5
A5F
100
AcDbEntity
  8
ALPHA
100
AcDbSpline
210
0.0
220
0.0
230
1.0
 70
     8
 71
     3
 72
     8
 73
     4
 74
     0
 42
0.0000001
 43
0.0000001
 40
1.0
 40
1.0
 40
1.0
 40
1.0
 40
2.0
 40
2.0
 40
2.0
 40
2.0
 10
33.15090921957539
 20
342.3061523715082
 30
0.0
 10
31.45076332674534
 20
342.3050896430577
 30
0.0
 10
29.79140850839729
 20
340.6346539843773
 30
0.0
 10
29.79194057579531
 20
339.7834561068464
 30
0.0
  0
SPLINE
  5
A60
100
AcDbEntity
  8
ALPHA
100
AcDbSpline
210
-0.9999998046370924
220
-0.0006250806165555
230
0.0
 70
    24
 71
     3
 72
     8
 73
     4
 74
     0
 42
0.0000001
 43
0.0000001
 40
2.0
 40
2.0
 40
2.0
 40
2.0
 40
3.0
 40
3.0
 40
3.0
 40
3.0
 10
29.79194057579531
 20
339.7834561068464
 30
0.0
 10
29.79194057579531
 20
339.7834561068464
 30
0.0
 10
29.79237607413256
 20
339.0867487692021
 30
0.0
 10
29.79237607413256
 20
339.0867487692021
 30
0.0
  0
SPLINE
  5
A61
100
AcDbEntity
  8
ALPHA
100
AcDbSpline
210
0.0
220
0.0
230
1.0
 70
     8
 71
     3
 72
     8
 73
     4
 74
     0
 42
0.0000001
 43
0.0000001
 40
3.0
 40
3.0
 40
3.0
 40
3.0
 40
4.0
 40
4.0
 40
4.0
 40
4.0
 10
29.79237607413256
 20
339.0867487692021
 30
0.0
 10
29.79290907909427
 20
338.2340509835171
 30
0.0
 10
31.45391400954889
 20
337.2646482907373
 30
0.0
 10
33.15405990237894
 20
337.2657110191878
 30
0.0
  0
SPLINE
  5
A62
100
AcDbEntity
  8
ALPHA
100
AcDbSpline
210
-0.0006250806164909
220
0.9999998046370922
230
0.0
 70
    24
 71
     3
 72
     8
 73
     4
 74
     0
 42
0.0000001
 43
0.0000001
 40
4.0
 40
4.0
 40
4.0
 40
4.0
 40
4.500011632562675
 40
4.500011632562675
 40
4.500011632562675
 40
4.500011632562675
 10
33.15405990237894
 20
337.2657110191878
 30
0.0
 10
33.15405990237894
 20
337.2657110191878
 30
0.0
 10
37.5418703893643
 20
337.268453755008
 30
0.0
 10
41.92957879338871
 20
337.2711964270179
 30
0.0
  0
SPLINE
  5
A63
100
AcDbEntity
  8
ALPHA
100
AcDbSpline
210
-0.0006250806164913
220
0.9999998046370922
230
0.0
 70
    24
 71
     3
 72
     8
 73
     4
 74
     0
 42
0.0000001
 43
0.0000001
 40
0.4863163700872894
 40
0.4863163700872894
 40
0.4863163700872894
 40
0.4863163700872894
 40
1.0
 40
1.0
 40
1.0
 40
1.0
 10
41.93787388817907
 20
324.0007590323869
 30
0.0
 10
37.05188838194385
 20
323.9977048969578
 30
0.0
 10
32.02842443258276
 20
323.9945648264019
 30
0.0
 10
32.02842443258276
 20
323.9945648264019
 30
0.0
  0
SPLINE
  5
A64
100
AcDbEntity
  8
ALPHA
100
AcDbSpline
210
0.0
220
0.0
230
-1.0
 70
     8
 71
     3
 72
    11
 73
     7
 74
     0
 42
0.0000001
 43
0.0000001
 40
1.0
 40
1.0
 40
1.0
 40
1.0
 40
2.0
 40
2.0
 40
2.0
 40
3.0
 40
3.0
 40
3.0
 40
3.0
 10
32.02842443258276
 20
323.9945648264019
 30
0.0
 10
30.13629029601009
 20
323.9933820897981
 30
0.0
 10
28.60410327373319
 20
322.8419943453987
 30
0.0
 10
28.6049902089905
 20
321.4230812314881
 30
0.0
 10
28.60587573790223
 20
320.0064179798091
 30
0.0
 10
30.13950285801758
 20
318.8539467992975
 30
0.0
 10
32.03163699459025
 20
318.8551295359013
 30
0.0
  0
SPLINE
  5
A65
100
AcDbEntity
  8
ALPHA
100
AcDbSpline
210
-0.0006250806164913
220
0.9999998046370922
230
0.0
 70
    24
 71
     3
 72
     8
 73
     4
 74
     0
 42
0.0000001
 43
0.0000001
 40
3.0
 40
3.0
 40
3.0
 40
3.0
 40
3.513683629912713
 40
3.513683629912713
 40
3.513683629912713
 40
3.513683629912713
 10
32.03163699459025
 20
318.8551295359013
 30
0.0
 10
32.03163699459025
 20
318.8551295359013
 30
0.0
 10
37.0551009439514
 20
318.8582696064572
 30
0.0
 10
41.94108645018656
 20
318.8613237418862
 30
0.0
  0
SPLINE
  5
A66
100
AcDbEntity
  8
ALPHA
100
AcDbSpline
210
-0.0006250806165043
220
0.9999998046370922
230
0.0
 70
    24
 71
     3
 72
     8
 73
     4
 74
     0
 42
0.0000001
 43
0.0000001
 40
0.4877964700764007
 40
0.4877964700764007
 40
0.4877964700764007
 40
0.4877964700764007
 40
1.0
 40
1.0
 40
1.0
 40
1.0
 10
41.9494185787708
 20
305.5316399751634
 30
0.0
 10
36.86888203364242
 20
305.5284642296271
 30
0.0
 10
31.66124231421941
 20
305.5252090343449
 30
0.0
 10
31.66124231421941
 20
305.5252090343449
 30
0.0
  0
SPLINE
  5
A67
100
AcDbEntity
  8
ALPHA
100
AcDbSpline
210
0.0
220
0.0
230
-1.0
 70
     8
 71
     3
 72
    11
 73
     7
 74
     0
 42
0.0000001
 43
0.0000001
 40
1.0
 40
1.0
 40
1.0
 40
1.0
 40
2.0
 40
2.0
 40
2.0
 40
3.0
 40
3.0
 40
3.0
 40
3.0
 10
31.66124231421941
 20
305.5252090343449
 30
0.0
 10
29.56137089828462
 20
305.5238964451691
 30
0.0
 10
27.85638888938541
 20
303.6614439470529
 30
0.0
 10
27.85717738045451
 20
302.4000211893376
 30
0.0
 10
27.8579644651781
 20
301.1408482938538
 30
0.0
 10
29.5647503466302
 20
300.1174775032138
 30
0.0
 10
31.66462176256499
 20
300.1187900923896
 30
0.0
  0
SPLINE
  5
A68
100
AcDbEntity
  8
ALPHA
100
AcDbSpline
210
-0.0006250806165043
220
0.9999998046370924
230
0.0
 70
    24
 71
     3
 72
     8
 73
     4
 74
     0
 42
0.0000001
 43
0.0000001
 40
3.0
 40
3.0
 40
3.0
 40
3.0
 40
3.512203529923598
 40
3.512203529923598
 40
3.512203529923598
 40
3.512203529923598
 10
31.66462176256499
 20
300.1187900923896
 30
0.0
 10
31.66462176256499
 20
300.1187900923896
 30
0.0
 10
36.872261481988
 20
300.1220452876718
 30
0.0
 10
41.95279802711633
 20
300.1252210332081
 30
0.0
  0
SPLINE
  5
A69
100
AcDbEntity
  8
ALPHA
100
AcDbSpline
210
-0.0006250806165063
220
0.9999998046370924
230
0.0
 70
    24
 71
     3
 72
     8
 73
     4
 74
     0
 42
0.0000001
 43
0.0000001
 40
0.4873881452841748
 40
0.4873881452841748
 40
0.4873881452841748
 40
0.4873881452841748
 40
1.0
 40
1.0
 40
1.0
 40
1.0
 10
41.96114093766948
 20
286.7782883227109
 30
0.0
 10
36.02059132663447
 20
286.7745749995722
 30
0.0
 10
29.92632162751061
 20
286.7707655889674
 30
0.0
 10
29.92632162751061
 20
286.7707655889674
 30
0.0
  0
SPLINE
  5
A6A
100
AcDbEntity
  8
ALPHA
100
AcDbSpline
210
0.0
220
0.0
230
-1.0
 70
     8
 71
     3
 72
    11
 73
     7
 74
     0
 42
0.0000001
 43
0.0000001
 40
1.0
 40
1.0
 40
1.0
 40
1.0
 40
2.0
 40
2.0
 40
2.0
 40
3.0
 40
3.0
 40
3.0
 40
3.0
 10
29.92632162751061
 20
286.7707655889674
 30
0.0
 10
26.97150256365955
 20
286.7689185884844
 30
0.0
 10
24.57329906332109
 20
285.3282570813587
 30
0.0
 10
24.5744082011746
 20
283.5538657348938
 30
0.0
 10
24.57551499511879
 20
281.7832241588143
 30
0.0
 10
26.97551955531901
 20
280.3425621016467
 30
0.0
 10
29.93033861917007
 20
280.3444091021296
 30
0.0
  0
SPLINE
  5
A6B
100
AcDbEntity
  8
ALPHA
100
AcDbSpline
210
-0.0006250806165063
220
0.9999998046370924
230
0.0
 70
    24
 71
     3
 72
     8
 73
     4
 74
     0
 42
0.0000001
 43
0.0000001
 40
3.0
 40
3.0
 40
3.0
 40
3.0
 40
3.512611854715824
 40
3.512611854715824
 40
3.512611854715824
 40
3.512611854715824
 10
29.93033861917007
 20
280.3444091021296
 30
0.0
 10
29.93033861917007
 20
280.3444091021296
 30
0.0
 10
36.02460831829387
 20
280.3482185127345
 30
0.0
 10
41.96515792932888
 20
280.3519318358733
 30
0.0
  0
POLYLINE
  5
A6C
100
AcDbEntity
  8
ALPHA
100
AcDb2dPolyline
 66
     1
 10
0.0
 20
0.0
 30
0.0
  0
VERTEX
  5
A6D
100
AcDbEntity
  8
ALPHA
100
AcDbVertex
100
AcDb2dVertex
 10
32.203307
 20
323.994674
 30
0.0
  0
VERTEX
  5
A6E
100
AcDbEntity
  8
ALPHA
100
AcDbVertex
100
AcDb2dVertex
 10
32.61526
 20
337.296952
 30
0.0
  0
SEQEND
  5
A6F
100
AcDbEntity
  8
ALPHA
  0
POLYLINE
  5
A70
100
AcDbEntity
  8
ALPHA
100
AcDb2dPolyline
 66
     1
 10
0.0
 20
0.0
 30
0.0
  0
VERTEX
  5
A71
100
AcDbEntity
  8
ALPHA
100
AcDbVertex
100
AcDb2dVertex
 10
30.950365
 20
305.453844
 30
0.0
  0
VERTEX
  5
A72
100
AcDbEntity
  8
ALPHA
100
AcDbVertex
100
AcDb2dVertex
 10
30.951061
 20
305.481266
 30
0.0
  0
VERTEX
  5
A73
100
AcDbEntity
  8
ALPHA
100
AcDbVertex
100
AcDb2dVertex
 10
31.923344
 20
318.856324
 30
0.0
  0
SEQEND
  5
A74
100
AcDbEntity
  8
ALPHA
  0
POLYLINE
  5
A75
100
AcDbEntity
  8
ALPHA
100
AcDb2dPolyline
 66
     1
 10
0.0
 20
0.0
 30
0.0
  0
VERTEX
  5
A76
100
AcDbEntity
  8
ALPHA
100
AcDbVertex
100
AcDb2dVertex
 10
29.424551
 20
286.756503
 30
0.0
  0
VERTEX
  5
A77
100
AcDbEntity
  8
ALPHA
100
AcDbVertex
100
AcDb2dVertex
 10
29.430519
 20
286.903949
 30
0.0
  0
VERTEX
  5
A78
100
AcDbEntity
  8
ALPHA
100
AcDbVertex
100
AcDb2dVertex
 10
30.81639
 20
300.175257
 30
0.0
  0
VERTEX
  5
A79
100
AcDbEntity
  8
ALPHA
100
AcDbVertex
100
AcDb2dVertex
 10
30.816393
 20
300.175367
 30
0.0
  0
SEQEND
  5
A7A
100
AcDbEntity
  8
ALPHA
  0
POLYLINE
  5
A7B
100
AcDbEntity
  8
ALPHA
100
AcDb2dPolyline
 66
     1
 10
0.0
 20
0.0
 30
0.0
  0
VERTEX
  5
A7C
100
AcDbEntity
  8
ALPHA
100
AcDbVertex
100
AcDb2dVertex
 10
24.722358
 20
218.333561
 30
0.0
  0
VERTEX
  5
A7D
100
AcDbEntity
  8
ALPHA
100
AcDbVertex
100
AcDb2dVertex
 10
27.769634
 20
260.086043
 30
0.0
  0
VERTEX
  5
A7E
100
AcDbEntity
  8
ALPHA
100
AcDbVertex
100
AcDb2dVertex
 10
29.166324
 20
280.376512
 30
0.0
  0
SEQEND
  5
A7F
100
AcDbEntity
  8
ALPHA
  0
ENDSEC
  0
SECTION
  2
OBJECTS
  0
DICTIONARY
  5
19
102
{ACAD_XDICTIONARY
360
ADA
102
}
100
AcDbDictionary
  3
ACAD_COLOR
350
BF
  3
ACAD_GROUP
350
1A
  3
ACAD_LAYOUT
350
1E
  3
ACAD_MATERIAL
350
BE
  3
ACAD_MLINESTYLE
350
1B
  3
ACAD_PLOTSETTINGS
350
22
  3
ACAD_PLOTSTYLENAME
350
1F
  3
ACAD_TABLESTYLE
350
C0
  3
ACAD_WIPEOUT_VARS
350
23
  3
ACDBHEADERROUNDTRIPXREC
350
AB6
  3
ACDBVARIABLEDICTIONARY
350
1D2
  0
DICTIONARY
  5
AAC
100
AcDbDictionary
  3
ACAD_XREC_ROUNDTRIP
360
AAD
  0
DICTIONARY
  5
AAE
100
AcDbDictionary
  3
ACAD_XREC_ROUNDTRIP
360
AAF
  0
DICTIONARY
  5
AB0
100
AcDbDictionary
  3
ACAD_XREC_ROUNDTRIP
360
AB1
  0
DICTIONARY
  5
AE2
100
AcDbDictionary
  3
ACAD_XREC_ROUNDTRIP
360
AE3
  0
DICTIONARY
  5
AB2
100
AcDbDictionary
  3
ACAD_XREC_ROUNDTRIP
360
AB3
  0
DICTIONARY
  5
AAA
100
AcDbDictionary
  3
ACAD_XREC_ROUNDTRIP
360
AAB
  0
DICTIONARY
  5
AE4
100
AcDbDictionary
  3
ACAD_XREC_ROUNDTRIP
360
AE5
  0
DICTIONARY
  5
1B0
100
AcDbDictionary
  3
ACAD_LAYOUTSELFREF
360
AD7
  3
ACAD_SORTENTS
360
1B1
  0
DICTIONARY
  5
AD8
100
AcDbDictionary
  3
ACAD_LAYOUTSELFREF
360
AD9
  0
DICTIONARY
  5
ADA
100
AcDbDictionary
  3
ACAD_XREC_ROUNDTRIP
360
ADB
  0
DICTIONARY
  5
BF
102
{ACAD_REACTORS
330
19
102
}
100
AcDbDictionary
  0
DICTIONARY
  5
1A
102
{ACAD_REACTORS
330
19
102
}
100
AcDbDictionary
  0
DICTIONARY
  5
1E
102
{ACAD_XDICTIONARY
360
ADE
102
}
102
{ACAD_REACTORS
330
19
102
}
100
AcDbDictionary
  3
LAYOUT1
350
21
  3
MODEL
350
20
  0
DICTIONARY
  5
BE
102
{ACAD_REACTORS
330
19
102
}
100
AcDbDictionary
  0
DICTIONARY
  5
1B
102
{ACAD_XDICTIONARY
360
ADC
102
}
102
{ACAD_REACTORS
330
19
102
}
100
AcDbDictionary
  3
STANDARD
350
1C
  0
DICTIONARY
  5
22
102
{ACAD_REACTORS
330
19
102
}
100
AcDbDictionary
  0
ACAD_ZOMBIE_OBJECT
  5
1F
102
{ACAD_REACTORS
330
19
102
}
100
AcDbZombieObject
 90
      499
 91
      517
 93
       86
310
405010041939BDC9B585B0
350
1D
340
1D
 94
        0
  0
DICTIONARY
  5
C0
102
{ACAD_XDICTIONARY
360
AE0
102
}
102
{ACAD_REACTORS
330
19
102
}
100
AcDbDictionary
  3
STANDARD
350
C1
  0
ACAD_ZOMBIE_OBJECT
  5
23
102
{ACAD_REACTORS
330
19
102
}
100
AcDbZombieObject
 90
      499
 91
      525
 93
       10
310
4043
 94
        0
1001
ACAD
1000
AcadProxyRoundTripData
1071
      521
1071
   851991
1070
     0
  0
DICTIONARY
  5
AB6
102
{ACAD_REACTORS
330
19
102
}
100
AcDbDictionary
  3
CEPSNTYPE
350
AC0
  3
DIMSTYLEDATA
350
AC4
  3
FINGERPRINTGUID
350
AC1
  3
HYPERLINKBASE
350
AB9
  3
INSUNITS
350
ABF
  3
LAYOUTDICT
350
ABB
  3
LWETCUNION
350
ABE
  3
PLOTSETDICT
350
ABC
  3
PLOTSTYLNAMDICT
350
ABD
  3
PSVPSCALE
350
AC3
  3
PUCSBASE
350
AC7
  3
PUCSORGBACK
350
ACD
  3
PUCSORGBOTTOM
350
AC9
  3
PUCSORGFRONT
350
ACC
  3
PUCSORGLEFT
350
ACA
  3
PUCSORGRIGHT
350
ACB
  3
PUCSORGTOP
350
AC8
  3
PUCSORTHOREF
350
AC5
  3
PUCSORTHOVIEW
350
AC6
  3
STYLESHEET
350
ABA
  3
TSTACKALIGN
350
AB7
  3
TSTACKSIZE
350
AB8
  3
UCSBASE
350
AD0
  3
UCSORGBACK
350
AD6
  3
UCSORGBOTTOM
350
AD2
  3
UCSORGFRONT
350
AD5
  3
UCSORGLEFT
350
AD3
  3
UCSORGRIGHT
350
AD4
  3
UCSORGTOP
350
AD1
  3
UCSORTHOREF
350
ACE
  3
UCSORTHOVIEW
350
ACF
  3
VERSIONGUID
350
AC2
  0
DICTIONARY
  5
1D2
102
{ACAD_REACTORS
330
19
102
}
100
AcDbDictionary
  3
CTABLESTYLE
350
1D3
  3
DIMASSOC
350
1D4
  3
PROJECTNAME
350
1D5
  0
XRECORD
  5
AAD
102
{ACAD_REACTORS
330
AAC
102
}
100
AcDbXrecord
102
EXTNAMES
  1
BYBLOCK
  2
ByBlock
  0
XRECORD
  5
AAF
102
{ACAD_REACTORS
330
AAE
102
}
100
AcDbXrecord
102
EXTNAMES
  1
BYLAYER
  2
ByLayer
  0
XRECORD
  5
AB1
102
{ACAD_REACTORS
330
AB0
102
}
100
AcDbXrecord
102
EXTNAMES
  1
CONTINUOUS
  2
Continuous
  0
XRECORD
  5
AE3
102
{ACAD_REACTORS
330
AE2
102
}
100
AcDbXrecord
102
PLOTBIT
280
     0
  0
XRECORD
  5
AB3
102
{ACAD_REACTORS
330
AB2
102
}
100
AcDbXrecord
102
EXTNAMES
  1
STANDARD
  2
Standard
  0
XRECORD
  5
AAB
102
{ACAD_REACTORS
330
AAA
102
}
100
AcDbXrecord
102
EXTNAMES
  1
STANDARD
  2
Standard
  0
XRECORD
  5
AE5
102
{ACAD_REACTORS
330
AE4
102
}
100
AcDbXrecord
102
ACADR14ROUNDTRIP
1000
DSTYLE
1002
{
1070
   279
 70
     2
1070
   341
340
CF
1070
   342
340
CF
1002
}
  0
XRECORD
  5
AD7
102
{ACAD_REACTORS
330
1B0
102
}
100
AcDbXrecord
340
A
  0
SORTENTSTABLE
  5
1B1
102
{ACAD_REACTORS
330
1B0
102
}
100
AcDbSortentsTable
330
A
  0
XRECORD
  5
AD9
102
{ACAD_REACTORS
330
AD8
102
}
100
AcDbXrecord
340
B
  0
XRECORD
  5
ADB
102
{ACAD_REACTORS
330
ADA
102
}
100
AcDbXrecord
102
EXTNAMES
  1
ACDBVARIABLEDICTIONARY
  2
AcDbVariableDictionary
  0
DICTIONARY
  5
ADE
100
AcDbDictionary
  3
ACAD_XREC_ROUNDTRIP
360
ADF
  0
ACAD_ZOMBIE_OBJECT
  5
21
102
{ACAD_XDICTIONARY
360
AA3
102
}
102
{ACAD_REACTORS
330
1E
102
}
100
AcDbZombieObject
 90
      499
 91
      515
 93
      812
310
AAAAAAAAAA5A69074C61796F757431406A800000000000000000000000000000000000000000000A1000000000000008902A6A6A10232D5E076BC5510408CB5781DAF154410232D5E076BC5510408CB5781DAF15C410232D5E076BC5710408CB5781DAF15C42
330
B
330
0
340
0
340
0
 94
        0
  0
ACAD_ZOMBIE_OBJECT
  5
20
102
{ACAD_XDICTIONARY
360
AA1
102
}
102
{ACAD_REACTORS
330
1E
102
}
100
AcDbZombieObject
 90
      499
 91
      515
 93
      420
310
A00012AAAAAAAA5A69054D6F64656CAA80000000000000000000000000000000000000000000000000000000000000002AAAAAAAAA
330
A
330
0
340
0
340
0
 94
        0
  0
DICTIONARY
  5
ADC
100
AcDbDictionary
  3
ACAD_XREC_ROUNDTRIP
360
ADD
  0
MLINESTYLE
  5
1C
102
{ACAD_REACTORS
330
1B
102
}
100
AcDbMlineStyle
  2
STANDARD
 70
     0
  3

 62
     0
 51
90.0
 52
90.0
 71
     2
 49
0.5
 62
   256
  6
BYLAYER
 49
-0.5
 62
   256
  6
BYLAYER
  0
ACAD_ZOMBIE_OBJECT
  5
1D
102
{ACAD_REACTORS
330
1F
102
}
100
AcDbZombieObject
 90
      499
 91
      518
 93
        0
 94
        0
  0
DICTIONARY
  5
AE0
100
AcDbDictionary
  3
ACAD_XREC_ROUNDTRIP
360
AE1
  0
ACAD_ZOMBIE_OBJECT
  5
C1
102
{ACAD_REACTORS
330
C0
102
}
100
AcDbZombieObject
 90
      499
 91
      525
 93
     1841
310
4214DD185B99185C9928000000000000F83F0000000000003E0FC00000000000004901028000000C1008070000C3001FDFF8000000C1003FBFF000000182007F7FE00000030400FEFFC00000060801FDFF8000000C1003FBFF000000182000000000000000C2020B0000001820100E000186003FBFF000000182007F7FE000
310
00030400FEFFC00000060801FDFF8000000C1003FBFF000000182007F7FE0000003040000000000000012404160000003040201C00030C007F7FE00000030400FEFFC00000060801FDFF8000000C1003FBFF000000182007F7FE00000030400FEFFC000000608008
340
17
340
17
340
17
 94
        0
1001
ACAD
1000
AcadProxyRoundTripData
1071
      524
1071
   851991
1070
     0
  0
XRECORD
  5
AC0
102
{ACAD_REACTORS
330
AB6
102
}
100
AcDbXrecord
 90
        0
  0
XRECORD
  5
AC4
102
{ACAD_REACTORS
330
AB6
102
}
100
AcDbXrecord
1000
DSTYLE
1002
{
1070
   278
 70
     0
1070
   371
 70
     0
1070
   372
 70
     0
1002
}
  0
XRECORD
  5
AC1
102
{ACAD_REACTORS
330
AB6
102
}
100
AcDbXrecord
  1

  0
XRECORD
  5
AB9
102
{ACAD_REACTORS
330
AB6
102
}
100
AcDbXrecord
  1

  0
XRECORD
  5
ABF
102
{ACAD_REACTORS
330
AB6
102
}
100
AcDbXrecord
 90
        0
  0
XRECORD
  5
ABB
102
{ACAD_REACTORS
330
AB6
102
}
100
AcDbXrecord
340
1E
  0
XRECORD
  5
ABE
102
{ACAD_REACTORS
330
AB6
102
}
100
AcDbXrecord
 90
    10752
  0
XRECORD
  5
ABC
102
{ACAD_REACTORS
330
AB6
102
}
100
AcDbXrecord
340
22
  0
XRECORD
  5
ABD
102
{ACAD_REACTORS
330
AB6
102
}
100
AcDbXrecord
340
1F
  0
XRECORD
  5
AC3
102
{ACAD_REACTORS
330
AB6
102
}
100
AcDbXrecord
 40
0.0
  0
XRECORD
  5
AC7
102
{ACAD_REACTORS
330
AB6
102
}
100
AcDbXrecord
340
0
  0
XRECORD
  5
ACD
102
{ACAD_REACTORS
330
AB6
102
}
100
AcDbXrecord
 10
0.0
 20
0.0
 30
0.0
  0
XRECORD
  5
AC9
102
{ACAD_REACTORS
330
AB6
102
}
100
AcDbXrecord
 10
0.0
 20
0.0
 30
0.0
  0
XRECORD
  5
ACC
102
{ACAD_REACTORS
330
AB6
102
}
100
AcDbXrecord
 10
0.0
 20
0.0
 30
0.0
  0
XRECORD
  5
ACA
102
{ACAD_REACTORS
330
AB6
102
}
100
AcDbXrecord
 10
0.0
 20
0.0
 30
0.0
  0
XRECORD
  5
ACB
102
{ACAD_REACTORS
330
AB6
102
}
100
AcDbXrecord
 10
0.0
 20
0.0
 30
0.0
  0
XRECORD
  5
AC8
102
{ACAD_REACTORS
330
AB6
102
}
100
AcDbXrecord
 10
0.0
 20
0.0
 30
0.0
  0
XRECORD
  5
AC5
102
{ACAD_REACTORS
330
AB6
102
}
100
AcDbXrecord
340
0
  0
XRECORD
  5
AC6
102
{ACAD_REACTORS
330
AB6
102
}
100
AcDbXrecord
 70
     0
  0
XRECORD
  5
ABA
102
{ACAD_REACTORS
330
AB6
102
}
100
AcDbXrecord
  1

  0
XRECORD
  5
AB7
102
{ACAD_REACTORS
330
AB6
102
}
100
AcDbXrecord
 90
        1
  0
XRECORD
  5
AB8
102
{ACAD_REACTORS
330
AB6
102
}
100
AcDbXrecord
 90
       70
  0
XRECORD
  5
AD0
102
{ACAD_REACTORS
330
AB6
102
}
100
AcDbXrecord
340
0
  0
XRECORD
  5
AD6
102
{ACAD_REACTORS
330
AB6
102
}
100
AcDbXrecord
 10
0.0
 20
0.0
 30
0.0
  0
XRECORD
  5
AD2
102
{ACAD_REACTORS
330
AB6
102
}
100
AcDbXrecord
 10
0.0
 20
0.0
 30
0.0
  0
XRECORD
  5
AD5
102
{ACAD_REACTORS
330
AB6
102
}
100
AcDbXrecord
 10
0.0
 20
0.0
 30
0.0
  0
XRECORD
  5
AD3
102
{ACAD_REACTORS
330
AB6
102
}
100
AcDbXrecord
 10
0.0
 20
0.0
 30
0.0
  0
XRECORD
  5
AD4
102
{ACAD_REACTORS
330
AB6
102
}
100
AcDbXrecord
 10
0.0
 20
0.0
 30
0.0
  0
XRECORD
  5
AD1
102
{ACAD_REACTORS
330
AB6
102
}
100
AcDbXrecord
 10
0.0
 20
0.0
 30
0.0
  0
XRECORD
  5
ACE
102
{ACAD_REACTORS
330
AB6
102
}
100
AcDbXrecord
340
0
  0
XRECORD
  5
ACF
102
{ACAD_REACTORS
330
AB6
102
}
100
AcDbXrecord
 70
     0
  0
XRECORD
  5
AC2
102
{ACAD_REACTORS
330
AB6
102
}
100
AcDbXrecord
  1
{719C8AF5-7DE5-4F6E-AC6C-0607DB068976}
  0
DICTIONARYVAR
  5
1D3
102
{ACAD_REACTORS
330
1D2
102
}
100
DictionaryVariables
280
     0
  1
STANDARD
  0
DICTIONARYVAR
  5
1D4
102
{ACAD_REACTORS
330
1D2
102
}
100
DictionaryVariables
280
     0
  1
1
  0
DICTIONARYVAR
  5
1D5
102
{ACAD_REACTORS
330
1D2
102
}
100
DictionaryVariables
280
     0
  1

  0
XRECORD
  5
ADF
102
{ACAD_REACTORS
330
ADE
102
}
100
AcDbXrecord
102
EXTNAMES
  1
LAYOUT1
  2
Layout1
  1
MODEL
  2
Model
  0
DICTIONARY
  5
AA3
100
AcDbDictionary
  3
ACAD_XREC_ROUNDTRIP
360
AA4
  0
DICTIONARY
  5
AA1
100
AcDbDictionary
  3
ACAD_XREC_ROUNDTRIP
360
AA2
  0
XRECORD
  5
ADD
102
{ACAD_REACTORS
330
ADC
102
}
100
AcDbXrecord
102
EXTNAMES
  1
STANDARD
  2
Standard
  0
XRECORD
  5
AE1
102
{ACAD_REACTORS
330
AE0
102
}
100
AcDbXrecord
102
EXTNAMES
  1
STANDARD
  2
Standard
  0
XRECORD
  5
AA4
102
{ACAD_REACTORS
330
AA3
102
}
100
AcDbXrecord
102
SHADEPLOT
 70
     0
102
SHADEPLOTRESLEVEL
 70
     2
102
SHADEPLOTCUSTOMDPI
 70
   300
  0
XRECORD
  5
AA2
102
{ACAD_REACTORS
330
AA1
102
}
100
AcDbXrecord
102
SHADEPLOT
 70
     0
102
SHADEPLOTRESLEVEL
 70
     2
102
SHADEPLOTCUSTOMDPI
 70
   300
  0
ENDSEC
  0
EOF
