  0
SECTION
  2
HEADER
  9
$ACADVER
  1
AC1009
  9
$INSBASE
 10
402.590624
 20
-1.041018
 30
0.0
  9
$EXTMIN
 10
-337.05101
 20
29.228457
 30
0.0
  9
$EXTMAX
 10
-248.753391
 20
200.728457
 30
0.0
  9
$LIMMIN
 10
-407.970438
 20
-367.832444
  9
$LIMMAX
 10
429.804077
 20
234.370848
  9
$ORTHOMODE
 70
     1
  9
$REGENMODE
 70
     1
  9
$FILLMODE
 70
     1
  9
$QTEXTMODE
 70
     0
  9
$MIRRTEXT
 70
     1
  9
$DRAGMODE
 70
     2
  9
$LTSCALE
 40
10.0
  9
$OSMODE
 70
    33
  9
$ATTMODE
 70
     1
  9
$TEXTSIZE
 40
6.0
  9
$TRACEWID
 40
1.0
  9
$TEXTSTYLE
  7
ROMANS
  9
$CLAYER
  8
ALPHA
  9
$CELTYPE
  6
BYLAYER
  9
$CECOLOR
 62
   256
  9
$DIMSCALE
 40
1.0
  9
$DIMASZ
 40
5.0
  9
$DIMEXO
 40
2.0
  9
$DIMDLI
 40
0.38
  9
$DIMRND
 40
0.0
  9
$DIMDLE
 40
0.0
  9
$DIMEXE
 40
2.5
  9
$DIMTP
 40
0.0
  9
$DIMTM
 40
0.0
  9
$DIMTXT
 40
2.5
  9
$DIMCEN
 40
0.0
  9
$DIMTSZ
 40
0.0
  9
$DIMTOL
 70
     0
  9
$DIMLIM
 70
     0
  9
$DIMTIH
 70
     1
  9
$DIMTOH
 70
     1
  9
$DIMSE1
 70
     0
  9
$DIMSE2
 70
     0
  9
$DIMTAD
 70
     1
  9
$DIMZIN
 70
    12
  9
$DIMBLK
  1
OPEN30
  9
$DIMASO
 70
     1
  9
$DIMSHO
 70
     1
  9
$DIMPOST
  1

  9
$DIMAPOST
  1

  9
$DIMALT
 70
     0
  9
$DIMALTD
 70
     2
  9
$DIMALTF
 40
25.4
  9
$DIMLFAC
 40
1.0
  9
$DIMTOFL
 70
     0
  9
$DIMTVP
 40
0.0
  9
$DIMTIX
 70
     0
  9
$DIMSOXD
 70
     0
  9
$DIMSAH
 70
     0
  9
$DIMBLK1
  1

  9
$DIMBLK2
  1

  9
$DIMSTYLE
  2
SC_DEFAUT
  9
$DIMCLRD
 70
     0
  9
$DIMCLRE
 70
     0
  9
$DIMCLRT
 70
     0
  9
$DIMTFAC
 40
1.0
  9
$DIMGAP
 40
2.0
  9
$LUNITS
 70
     2
  9
$LUPREC
 70
     1
  9
$SKETCHINC
 40
0.1
  9
$FILLETRAD
 40
0.0
  9
$AUNITS
 70
     0
  9
$AUPREC
 70
     0
  9
$MENU
  1
acad
  9
$ELEVATION
 40
0.0
  9
$PELEVATION
 40
0.0
  9
$THICKNESS
 40
0.0
  9
$LIMCHECK
 70
     0
  9
$BLIPMODE
 70
     0
  9
$CHAMFERA
 40
0.0
  9
$CHAMFERB
 40
0.0
  9
$SKPOLY
 70
     0
  9
$TDCREATE
 40
2450373.687919
  9
$TDUPDATE
 40
2452839.631841
  9
$TDINDWG
 40
1.50837
  9
$TDUSRTIMER
 40
1.50837
  9
$USRTIMER
 70
     1
  9
$ANGBASE
 50
0.0
  9
$ANGDIR
 70
     0
  9
$PDMODE
 70
    32
  9
$PDSIZE
 40
0.0
  9
$PLINEWID
 40
0.0
  9
$COORDS
 70
     1
  9
$SPLFRAME
 70
     0
  9
$SPLINETYPE
 70
     6
  9
$SPLINESEGS
 70
     8
  9
$ATTDIA
 70
     0
  9
$ATTREQ
 70
     1
  9
$HANDLING
 70
     1
  9
$HANDSEED
  5
F1ED
  9
$SURFTAB1
 70
     6
  9
$SURFTAB2
 70
     6
  9
$SURFTYPE
 70
     6
  9
$SURFU
 70
     6
  9
$SURFV
 70
     6
  9
$UCSNAME
  2

  9
$UCSORG
 10
0.0
 20
0.0
 30
0.0
  9
$UCSXDIR
 10
1.0
 20
0.0
 30
0.0
  9
$UCSYDIR
 10
0.0
 20
1.0
 30
0.0
  9
$PUCSNAME
  2

  9
$PUCSORG
 10
0.0
 20
0.0
 30
0.0
  9
$PUCSXDIR
 10
1.0
 20
0.0
 30
0.0
  9
$PUCSYDIR
 10
0.0
 20
1.0
 30
0.0
  9
$USERI1
 70
     0
  9
$USERI2
 70
     0
  9
$USERI3
 70
     0
  9
$USERI4
 70
     0
  9
$USERI5
 70
     0
  9
$USERR1
 40
0.0
  9
$USERR2
 40
0.0
  9
$USERR3
 40
0.0
  9
$USERR4
 40
0.0
  9
$USERR5
 40
0.0
  9
$WORLDVIEW
 70
     1
  9
$SHADEDGE
 70
     3
  9
$SHADEDIF
 70
    70
  9
$TILEMODE
 70
     1
  9
$MAXACTVP
 70
    16
  9
$PLIMCHECK
 70
     0
  9
$PEXTMIN
 10
-1.452248
 20
-0.437698
 30
0.0
  9
$PEXTMAX
 10
12.749749
 20
8.310198
 30
0.0
  9
$PLIMMIN
 10
0.0
 20
0.0
  9
$PLIMMAX
 10
12.0
 20
9.0
  9
$UNITMODE
 70
     0
  9
$VISRETAIN
 70
     0
  9
$PLINEGEN
 70
     0
  9
$PSLTSCALE
 70
     0
  0
ENDSEC
  0
SECTION
  2
TABLES
  0
TABLE
  2
VPORT
 70
     2
  0
VPORT
  2
*ACTIVE
 70
     0
 10
0.0
 20
0.0
 11
1.0
 21
1.0
 12
-292.913223
 22
114.979563
 13
0.0
 23
0.0
 14
1.0
 24
1.0
 15
10.0
 25
10.0
 16
0.0
 26
0.0
 36
1.0
 17
0.0
 27
0.0
 37
0.0
 40
173.02502
 41
1.56
 42
50.0
 43
0.0
 44
0.0
 50
0.0
 51
0.0
 71
     0
 72
   100
 73
     1
 74
     0
 75
     0
 76
     0
 77
     0
 78
     0
  0
ENDTAB
  0
TABLE
  2
LTYPE
 70
     3
  0
LTYPE
  2
CONTINUOUS
 70
     0
  3
Solid line
 72
    65
 73
     0
 40
0.0
  0
LTYPE
  2
AXES2
 70
     0
  3
___ _ ___ _ ___ _ ___ _ ___ _ ___ _ ___ _ ___ _
 72
    65
 73
     4
 40
1.125
 49
0.75
 49
-0.125
 49
0.125
 49
-0.125
  0
LTYPE
  2
CACHE2
 70
     0
  3
Caché (x.5) _ _ _ _ _ _ _ _ _ _ _ _ _ _ _ _ _
 72
    65
 73
     2
 40
0.1875
 49
0.125
 49
-0.0625
  0
ENDTAB
  0
TABLE
  2
LAYER
 70
     7
  0
LAYER
  2
0
 70
     0
 62
   255
  6
CONTINUOUS
  0
LAYER
  2
COTATION1
 70
     0
 62
     2
  6
CONTINUOUS
  0
LAYER
  2
AXE
 70
     0
 62
    80
  6
AXES2
  0
LAYER
  2
DEFPOINTS
 70
     0
 62
     7
  6
CONTINUOUS
  0
LAYER
  2
ALPHA
 70
     0
 62
   254
  6
CONTINUOUS
  0
LAYER
  2
POINTILLE_COURT
 70
     0
 62
    41
  6
CACHE2
  0
LAYER
  2
POINTILLE_COURT
 70
     0
 62
    41
  6
CACHE2
  0
ENDTAB
  0
TABLE
  2
STYLE
 70
     2
  0
STYLE
  2
ROMANS
 70
     0
 40
0.0
 41
1.0
 50
0.0
 71
     0
 42
6.0
  3
romans
  4

  0
STYLE
  2
STANDARD
 70
     0
 40
0.2
 41
1.0
 50
0.0
 71
     0
 42
0.2
  3
txt
  4

  0
ENDTAB
  0
TABLE
  2
VIEW
 70
     0
  0
ENDTAB
  0
TABLE
  2
UCS
 70
     0
  0
ENDTAB
  0
TABLE
  2
APPID
 70
     1
  0
APPID
  2
ACAD
 70
     0
  0
ENDTAB
  0
TABLE
  2
DIMSTYLE
 70
     1
  0
DIMSTYLE
  2
SC_DEFAUT
 70
     0
  3

  4

  5
OPEN30
  6

  7

 40
1.0
 41
5.0
 42
2.0
 43
0.38
 44
2.5
 45
0.0
 46
0.0
 47
0.0
 48
0.0
140
2.5
141
0.0
142
0.0
143
25.4
144
1.0
145
0.0
146
1.0
147
2.0
 71
     0
 72
     0
 73
     1
 74
     1
 75
     0
 76
     0
 77
     1
 78
    12
170
     0
171
     2
172
     0
173
     0
174
     0
175
     0
176
     0
177
     0
178
     0
  0
ENDTAB
  0
ENDSEC
  0
SECTION
  2
BLOCKS
  0
BLOCK
  8
0
  2
$MODEL_SPACE
 70
     0
 10
0.0
 20
0.0
 30
0.0
  3
$MODEL_SPACE
  1

  0
ENDBLK
  5
F15A
  8
0
  0
BLOCK
 67
     1
  8
0
  2
$PAPER_SPACE
 70
     0
 10
0.0
 20
0.0
 30
0.0
  3
$PAPER_SPACE
  1

  0
ENDBLK
  5
F158
 67
     1
  8
0
  0
BLOCK
  8
0
  2
COTE
 70
     0
 10
0.0
 20
0.0
 30
0.0
  3
COTE
  1

  0
ENDBLK
  5
F
  8
0
  0
BLOCK
  8
0
  2
FOND
 70
     0
 10
0.0
 20
0.0
 30
0.0
  3
FOND
  1

  0
ENDBLK
  5
75
  8
0
  0
BLOCK
  8
0
  2
_OPEN30
 70
     0
 10
0.0
 20
0.0
 30
0.0
  3
_OPEN30
  1

  0
LINE
  5
4B05
  8
COTATION1
 62
     0
 10
-1.0
 20
0.267949
 30
0.0
 11
0.0
 21
0.0
 31
0.0
1001
ACAD
1000
RTLwPs
1070
   158
  0
LINE
  5
4B06
  8
COTATION1
 62
     0
 10
0.0
 20
0.0
 30
0.0
 11
-1.0
 21
-0.267949
 31
0.0
1001
ACAD
1000
RTLwPs
1070
   158
  0
LINE
  5
4B07
  8
COTATION1
 62
     0
 10
0.0
 20
0.0
 30
0.0
 11
-1.0
 21
0.0
 31
0.0
1001
ACAD
1000
RTLwPs
1070
   158
  0
ENDBLK
  5
4B09
  8
0
  0
BLOCK
  8
0
  2
*D3
 70
     1
 10
0.0
 20
0.0
 30
0.0
  3
*D3
  1

  0
LINE
  5
E2C1
  8
COTATION1
 62
     0
 10
-305.062915
 20
66.728457
 30
0.0
 11
-305.062915
 21
39.228457
 31
0.0
1001
ACAD
1000
RTLwPs
1070
   158
  0
LINE
  5
E2C2
  8
COTATION1
 62
     0
 10
-275.062915
 20
65.728457
 30
0.0
 11
-275.062915
 21
39.228457
 31
0.0
1001
ACAD
1000
RTLwPs
1070
   158
  0
LINE
  5
E2C3
  8
COTATION1
 62
     0
 10
-300.062915
 20
41.728457
 30
0.0
 11
-280.062915
 21
41.728457
 31
0.0
1001
ACAD
1000
RTLwPs
1070
   158
  0
INSERT
  5
E2C4
  8
COTATION1
 62
     0
  2
_OPEN30
 10
-305.062915
 20
41.728457
 30
0.0
 41
5.0
 42
5.0
 43
5.0
 50
180.0
1001
ACAD
1000
RTLwPs
1070
   158
  0
INSERT
  5
E2C5
  8
COTATION1
 62
     0
  2
_OPEN30
 10
-275.062915
 20
41.728457
 30
0.0
 41
5.0
 42
5.0
 43
5.0
1001
ACAD
1000
RTLwPs
1070
   158
  0
TEXT
  5
E2C6
  8
COTATION1
 62
     0
 10
-292.443867
 20
43.728457
 30
0.0
 40
2.5
  1
30
1001
ACAD
1000
MTEXTBEGIN
1070
    73
1070
     1
1070
    44
1040
1.0
1070
    74
1070
     0
1000
MTEXTEND
1000
MTEXTBEGIN
1070
    73
1070
     1
1070
    44
1040
1.0
1070
    74
1070
     0
1000
MTEXTEND
1000
MTEXTBEGIN
1070
    73
1070
     1
1070
    44
1040
1.0
1070
    74
1070
     0
1000
MTEXTEND
1000
MTEXTBEGIN
1070
    73
1070
     1
1070
    44
1040
1.0
1070
    74
1070
     0
1000
MTEXTEND
1000
MTEXTBEGIN
1070
    73
1070
     1
1070
    44
1040
1.0
1070
    74
1070
     0
1000
MTEXTEND
1000
MTEXTBEGIN
1070
    73
1070
     1
1070
    44
1040
1.0
1070
    74
1070
     0
1000
MTEXTEND
1000
MTEXTBEGIN
1070
    73
1070
     1
1070
    44
1040
1.0
1070
    74
1070
     0
1000
MTEXTEND
1000
MTEXTBEGIN
1070
    73
1070
     1
1070
    44
1040
1.0
1070
    74
1070
     0
1000
MTEXTEND
1000
MTEXTBEGIN
1070
    73
1070
     1
1070
    44
1040
1.0
1070
    74
1070
     0
1000
MTEXTEND
  0
POINT
  5
E2C7
  8
DEFPOINTS
 62
     0
 10
-305.062915
 20
68.728457
 30
0.0
  0
POINT
  5
E2C8
  8
DEFPOINTS
 62
     0
 10
-275.062915
 20
67.728457
 30
0.0
  0
POINT
  5
E2C9
  8
DEFPOINTS
 62
     0
 10
-275.062915
 20
41.728457
 30
0.0
  0
ENDBLK
  5
C7B0
  8
0
  0
BLOCK
  8
0
  2
*D4
 70
     1
 10
0.0
 20
0.0
 30
0.0
  3
*D4
  1

  0
LINE
  5
EF60
  8
COTATION1
 62
     0
 10
-294.312915
 20
161.228457
 30
0.0
 11
-250.062915
 21
161.228457
 31
0.0
1001
ACAD
1000
RTLwPs
1070
   158
  0
LINE
  5
EF61
  8
COTATION1
 62
     0
 10
-273.062915
 20
67.728457
 30
0.0
 11
-250.062915
 21
67.728457
 31
0.0
1001
ACAD
1000
RTLwPs
1070
   158
  0
LINE
  5
EF62
  8
COTATION1
 62
     0
 10
-252.562915
 20
156.228457
 30
0.0
 11
-252.562915
 21
117.728457
 31
0.0
1001
ACAD
1000
RTLwPs
1070
   158
  0
LINE
  5
EF63
  8
COTATION1
 62
     0
 10
-252.562915
 20
72.728457
 30
0.0
 11
-252.562915
 21
111.228457
 31
0.0
1001
ACAD
1000
RTLwPs
1070
   158
  0
INSERT
  5
EF64
  8
COTATION1
 62
     0
  2
_OPEN30
 10
-252.562915
 20
161.228457
 30
0.0
 41
5.0
 42
5.0
 43
5.0
 50
90.0
1001
ACAD
1000
RTLwPs
1070
   158
  0
INSERT
  5
EF65
  8
COTATION1
 62
     0
  2
_OPEN30
 10
-252.562915
 20
67.728457
 30
0.0
 41
5.0
 42
5.0
 43
5.0
 50
270.0
1001
ACAD
1000
RTLwPs
1070
   158
  0
TEXT
  5
EF66
  8
COTATION1
 62
     0
 10
-256.729581
 20
113.228457
 30
0.0
 40
2.5
  1
93.5
1001
ACAD
1000
MTEXTBEGIN
1070
    73
1070
     1
1070
    44
1040
1.0
1070
    74
1070
     0
1000
MTEXTEND
1000
MTEXTBEGIN
1070
    73
1070
     1
1070
    44
1040
1.0
1070
    74
1070
     0
1000
MTEXTEND
1000
MTEXTBEGIN
1070
    73
1070
     1
1070
    44
1040
1.0
1070
    74
1070
     0
1000
MTEXTEND
  0
POINT
  5
EF67
  8
DEFPOINTS
 62
     0
 10
-296.312915
 20
161.228457
 30
0.0
  0
POINT
  5
EF68
  8
DEFPOINTS
 62
     0
 10
-275.062915
 20
67.728457
 30
0.0
  0
POINT
  5
EF69
  8
DEFPOINTS
 62
     0
 10
-252.562915
 20
67.728457
 30
0.0
  0
ENDBLK
  5
C7BD
  8
0
  0
BLOCK
  8
0
  2
*D5
 70
     1
 10
0.0
 20
0.0
 30
0.0
  3
*D5
  1

  0
LINE
  5
EA3D
  8
COTATION1
 62
     0
 10
-279.062915
 20
69.128457
 30
0.0
 11
-279.062915
 21
49.228457
 31
0.0
1001
ACAD
1000
RTLwPs
1070
   158
  0
LINE
  5
EA3E
  8
COTATION1
 62
     0
 10
-275.062915
 20
65.728457
 30
0.0
 11
-275.062915
 21
49.228457
 31
0.0
1001
ACAD
1000
RTLwPs
1070
   158
  0
LINE
  5
EA3F
  8
COTATION1
 62
     0
 10
-284.062915
 20
51.728457
 30
0.0
 11
-289.062915
 21
51.728457
 31
0.0
1001
ACAD
1000
RTLwPs
1070
   158
  0
LINE
  5
EA40
  8
COTATION1
 62
     0
 10
-270.062915
 20
51.728457
 30
0.0
 11
-259.2772
 21
51.728457
 31
0.0
1001
ACAD
1000
RTLwPs
1070
   158
  0
INSERT
  5
EA41
  8
COTATION1
 62
     0
  2
_OPEN30
 10
-279.062915
 20
51.728457
 30
0.0
 41
5.0
 42
5.0
 43
5.0
1001
ACAD
1000
RTLwPs
1070
   158
  0
INSERT
  5
EA42
  8
COTATION1
 62
     0
  2
_OPEN30
 10
-275.062915
 20
51.728457
 30
0.0
 41
5.0
 42
5.0
 43
5.0
 50
180.0
1001
ACAD
1000
RTLwPs
1070
   158
  0
TEXT
  5
EA43
  8
COTATION1
 62
     0
 10
-263.420058
 20
53.728457
 30
0.0
 40
2.5
  1
4
1001
ACAD
1000
MTEXTBEGIN
1070
    73
1070
     1
1070
    44
1040
1.0
1070
    74
1070
     0
1000
MTEXTEND
1000
MTEXTBEGIN
1070
    73
1070
     1
1070
    44
1040
1.0
1070
    74
1070
     0
1000
MTEXTEND
1000
MTEXTBEGIN
1070
    73
1070
     1
1070
    44
1040
1.0
1070
    74
1070
     0
1000
MTEXTEND
1000
MTEXTBEGIN
1070
    73
1070
     1
1070
    44
1040
1.0
1070
    74
1070
     0
1000
MTEXTEND
1000
MTEXTBEGIN
1070
    73
1070
     1
1070
    44
1040
1.0
1070
    74
1070
     0
1000
MTEXTEND
  0
POINT
  5
EA44
  8
DEFPOINTS
 62
     0
 10
-279.062915
 20
71.128457
 30
0.0
  0
POINT
  5
EA45
  8
DEFPOINTS
 62
     0
 10
-275.062915
 20
67.728457
 30
0.0
  0
POINT
  5
EA46
  8
DEFPOINTS
 62
     0
 10
-275.062915
 20
51.728457
 30
0.0
  0
ENDBLK
  5
EA20
  8
0
  0
BLOCK
  8
0
  2
*D6
 70
     1
 10
0.0
 20
0.0
 30
0.0
  3
*D6
  1

  0
LINE
  5
EF74
  8
COTATION1
 62
     0
 10
-287.562915
 20
144.939778
 30
0.0
 11
-287.562915
 21
178.728457
 31
0.0
1001
ACAD
1000
RTLwPs
1070
   158
  0
LINE
  5
EF75
  8
COTATION1
 62
     0
 10
-275.062915
 20
120.728457
 30
0.0
 11
-275.062915
 21
178.728457
 31
0.0
1001
ACAD
1000
RTLwPs
1070
   158
  0
LINE
  5
EF76
  8
COTATION1
 62
     0
 10
-292.562915
 20
176.228457
 30
0.0
 11
-297.562915
 21
176.228457
 31
0.0
1001
ACAD
1000
RTLwPs
1070
   158
  0
LINE
  5
EF77
  8
COTATION1
 62
     0
 10
-270.062915
 20
176.228457
 30
0.0
 11
-253.80101
 21
176.228457
 31
0.0
1001
ACAD
1000
RTLwPs
1070
   158
  0
INSERT
  5
EF78
  8
COTATION1
 62
     0
  2
_OPEN30
 10
-287.562915
 20
176.228457
 30
0.0
 41
5.0
 42
5.0
 43
5.0
1001
ACAD
1000
RTLwPs
1070
   158
  0
INSERT
  5
EF79
  8
COTATION1
 62
     0
  2
_OPEN30
 10
-275.062915
 20
176.228457
 30
0.0
 41
5.0
 42
5.0
 43
5.0
 50
180.0
1001
ACAD
1000
RTLwPs
1070
   158
  0
TEXT
  5
EF7A
  8
COTATION1
 62
     0
 10
-263.7772
 20
178.228457
 30
0.0
 40
2.5
  1
12.5
1001
ACAD
1000
MTEXTBEGIN
1070
    73
1070
     1
1070
    44
1040
1.0
1070
    74
1070
     0
1000
MTEXTEND
1000
MTEXTBEGIN
1070
    73
1070
     1
1070
    44
1040
1.0
1070
    74
1070
     0
1000
MTEXTEND
1000
MTEXTBEGIN
1070
    73
1070
     1
1070
    44
1040
1.0
1070
    74
1070
     0
1000
MTEXTEND
  0
POINT
  5
EF7B
  8
DEFPOINTS
 62
     0
 10
-287.562915
 20
142.939778
 30
0.0
  0
POINT
  5
EF7C
  8
DEFPOINTS
 62
     0
 10
-275.062915
 20
118.728457
 30
0.0
  0
POINT
  5
EF7D
  8
DEFPOINTS
 62
     0
 10
-275.062915
 20
176.228457
 30
0.0
  0
ENDBLK
  5
EE83
  8
0
  0
BLOCK
  8
0
  2
*D7
 70
     1
 10
0.0
 20
0.0
 30
0.0
  3
*D7
  1

  0
LINE
  5
EF43
  8
COTATION1
 62
     0
 10
-299.062915
 20
166.228457
 30
0.0
 11
-299.062915
 21
188.728457
 31
0.0
1001
ACAD
1000
RTLwPs
1070
   158
  0
LINE
  5
EF44
  8
COTATION1
 62
     0
 10
-275.062915
 20
120.728457
 30
0.0
 11
-275.062915
 21
188.728457
 31
0.0
1001
ACAD
1000
RTLwPs
1070
   158
  0
LINE
  5
EF45
  8
COTATION1
 62
     0
 10
-294.062915
 20
186.228457
 30
0.0
 11
-280.062915
 21
186.228457
 31
0.0
1001
ACAD
1000
RTLwPs
1070
   158
  0
INSERT
  5
EF46
  8
COTATION1
 62
     0
  2
_OPEN30
 10
-299.062915
 20
186.228457
 30
0.0
 41
5.0
 42
5.0
 43
5.0
 50
180.0
1001
ACAD
1000
RTLwPs
1070
   158
  0
INSERT
  5
EF47
  8
COTATION1
 62
     0
  2
_OPEN30
 10
-275.062915
 20
186.228457
 30
0.0
 41
5.0
 42
5.0
 43
5.0
1001
ACAD
1000
RTLwPs
1070
   158
  0
TEXT
  5
EF48
  8
COTATION1
 62
     0
 10
-289.503391
 20
188.228457
 30
0.0
 40
2.5
  1
24
1001
ACAD
1000
MTEXTBEGIN
1070
    73
1070
     1
1070
    44
1040
1.0
1070
    74
1070
     0
1000
MTEXTEND
1000
MTEXTBEGIN
1070
    73
1070
     1
1070
    44
1040
1.0
1070
    74
1070
     0
1000
MTEXTEND
1000
MTEXTBEGIN
1070
    73
1070
     1
1070
    44
1040
1.0
1070
    74
1070
     0
1000
MTEXTEND
  0
POINT
  5
EF49
  8
DEFPOINTS
 62
     0
 10
-299.062915
 20
164.228457
 30
0.0
  0
POINT
  5
EF4A
  8
DEFPOINTS
 62
     0
 10
-275.062915
 20
118.728457
 30
0.0
  0
POINT
  5
EF4B
  8
DEFPOINTS
 62
     0
 10
-275.062915
 20
186.228457
 30
0.0
  0
ENDBLK
  5
EE8F
  8
0
  0
BLOCK
  8
0
  2
*D8
 70
     1
 10
0.0
 20
0.0
 30
0.0
  3
*D8
  1

  0
LINE
  5
EF3A
  8
COTATION1
 62
     0
 10
-315.062915
 20
166.228457
 30
0.0
 11
-315.062915
 21
198.728457
 31
0.0
1001
ACAD
1000
RTLwPs
1070
   158
  0
LINE
  5
EF3B
  8
COTATION1
 62
     0
 10
-275.062915
 20
120.728457
 30
0.0
 11
-275.062915
 21
198.728457
 31
0.0
1001
ACAD
1000
RTLwPs
1070
   158
  0
LINE
  5
EF3C
  8
COTATION1
 62
     0
 10
-310.062915
 20
196.228457
 30
0.0
 11
-280.062915
 21
196.228457
 31
0.0
1001
ACAD
1000
RTLwPs
1070
   158
  0
INSERT
  5
EF3D
  8
COTATION1
 62
     0
  2
_OPEN30
 10
-315.062915
 20
196.228457
 30
0.0
 41
5.0
 42
5.0
 43
5.0
 50
180.0
1001
ACAD
1000
RTLwPs
1070
   158
  0
INSERT
  5
EF3E
  8
COTATION1
 62
     0
  2
_OPEN30
 10
-275.062915
 20
196.228457
 30
0.0
 41
5.0
 42
5.0
 43
5.0
1001
ACAD
1000
RTLwPs
1070
   158
  0
TEXT
  5
EF3F
  8
COTATION1
 62
     0
 10
-297.443867
 20
198.228457
 30
0.0
 40
2.5
  1
40
1001
ACAD
1000
MTEXTBEGIN
1070
    73
1070
     1
1070
    44
1040
1.0
1070
    74
1070
     0
1000
MTEXTEND
1000
MTEXTBEGIN
1070
    73
1070
     1
1070
    44
1040
1.0
1070
    74
1070
     0
1000
MTEXTEND
1000
MTEXTBEGIN
1070
    73
1070
     1
1070
    44
1040
1.0
1070
    74
1070
     0
1000
MTEXTEND
  0
POINT
  5
EF40
  8
DEFPOINTS
 62
     0
 10
-315.062915
 20
164.228457
 30
0.0
  0
POINT
  5
EF41
  8
DEFPOINTS
 62
     0
 10
-275.062915
 20
118.728457
 30
0.0
  0
POINT
  5
EF42
  8
DEFPOINTS
 62
     0
 10
-275.062915
 20
196.228457
 30
0.0
  0
ENDBLK
  5
EE9B
  8
0
  0
BLOCK
  8
0
  2
*D9
 70
     1
 10
0.0
 20
0.0
 30
0.0
  3
*D9
  1

  0
LINE
  5
EF56
  8
COTATION1
 62
     0
 10
-317.812915
 20
163.228457
 30
0.0
 11
-317.812915
 21
188.728457
 31
0.0
1001
ACAD
1000
RTLwPs
1070
   158
  0
LINE
  5
EF57
  8
COTATION1
 62
     0
 10
-312.312915
 20
163.228457
 30
0.0
 11
-312.312915
 21
188.728457
 31
0.0
1001
ACAD
1000
RTLwPs
1070
   158
  0
LINE
  5
EF58
  8
COTATION1
 62
     0
 10
-307.312915
 20
186.228457
 30
0.0
 11
-302.312915
 21
186.228457
 31
0.0
1001
ACAD
1000
RTLwPs
1070
   158
  0
LINE
  5
EF59
  8
COTATION1
 62
     0
 10
-322.812915
 20
186.228457
 30
0.0
 11
-337.05101
 21
186.228457
 31
0.0
1001
ACAD
1000
RTLwPs
1070
   158
  0
INSERT
  5
EF5A
  8
COTATION1
 62
     0
  2
_OPEN30
 10
-312.312915
 20
186.228457
 30
0.0
 41
5.0
 42
5.0
 43
5.0
 50
180.0
1001
ACAD
1000
RTLwPs
1070
   158
  0
INSERT
  5
EF5B
  8
COTATION1
 62
     0
  2
_OPEN30
 10
-317.812915
 20
186.228457
 30
0.0
 41
5.0
 42
5.0
 43
5.0
1001
ACAD
1000
RTLwPs
1070
   158
  0
TEXT
  5
EF5C
  8
COTATION1
 62
     0
 10
-335.408153
 20
188.228457
 30
0.0
 40
2.5
  1
5.5
1001
ACAD
1000
MTEXTBEGIN
1070
    73
1070
     1
1070
    44
1040
1.0
1070
    74
1070
     0
1000
MTEXTEND
1000
MTEXTBEGIN
1070
    73
1070
     1
1070
    44
1040
1.0
1070
    74
1070
     0
1000
MTEXTEND
1000
MTEXTBEGIN
1070
    73
1070
     1
1070
    44
1040
1.0
1070
    74
1070
     0
1000
MTEXTEND
  0
POINT
  5
EF5D
  8
DEFPOINTS
 62
     0
 10
-317.812915
 20
161.228457
 30
0.0
  0
POINT
  5
EF5E
  8
DEFPOINTS
 62
     0
 10
-312.312915
 20
161.228457
 30
0.0
  0
POINT
  5
EF5F
  8
DEFPOINTS
 62
     0
 10
-312.312915
 20
186.228457
 30
0.0
  0
ENDBLK
  5
EECE
  8
0
  0
BLOCK
  8
0
  2
*D10
 70
     1
 10
0.0
 20
0.0
 30
0.0
  3
*D10
  1

  0
LINE
  5
EF94
  8
COTATION1
 62
     0
 10
-312.062915
 20
125.703713
 30
0.0
 11
-312.062915
 21
29.228457
 31
0.0
1001
ACAD
1000
RTLwPs
1070
   158
  0
LINE
  5
EF95
  8
COTATION1
 62
     0
 10
-275.062915
 20
55.728457
 30
0.0
 11
-275.062915
 21
29.228457
 31
0.0
1001
ACAD
1000
RTLwPs
1070
   158
  0
LINE
  5
EF96
  8
COTATION1
 62
     0
 10
-307.062915
 20
31.728457
 30
0.0
 11
-280.062915
 21
31.728457
 31
0.0
1001
ACAD
1000
RTLwPs
1070
   158
  0
INSERT
  5
EF97
  8
COTATION1
 62
     0
  2
_OPEN30
 10
-312.062915
 20
31.728457
 30
0.0
 41
5.0
 42
5.0
 43
5.0
 50
180.0
1001
ACAD
1000
RTLwPs
1070
   158
  0
INSERT
  5
EF98
  8
COTATION1
 62
     0
  2
_OPEN30
 10
-275.062915
 20
31.728457
 30
0.0
 41
5.0
 42
5.0
 43
5.0
1001
ACAD
1000
RTLwPs
1070
   158
  0
TEXT
  5
EF99
  8
COTATION1
 62
     0
 10
-295.943867
 20
33.728457
 30
0.0
 40
2.5
  1
37
1001
ACAD
1000
MTEXTBEGIN
1070
    73
1070
     1
1070
    44
1040
1.0
1070
    74
1070
     0
1000
MTEXTEND
1000
MTEXTBEGIN
1070
    73
1070
     1
1070
    44
1040
1.0
1070
    74
1070
     0
1000
MTEXTEND
1000
MTEXTBEGIN
1070
    73
1070
     1
1070
    44
1040
1.0
1070
    74
1070
     0
1000
MTEXTEND
  0
POINT
  5
EF9A
  8
DEFPOINTS
 62
     0
 10
-312.062915
 20
127.703713
 30
0.0
  0
POINT
  5
EF9B
  8
DEFPOINTS
 62
     0
 10
-275.062915
 20
57.728457
 30
0.0
  0
POINT
  5
EF9C
  8
DEFPOINTS
 62
     0
 10
-275.062915
 20
31.728457
 30
0.0
  0
ENDBLK
  5
EF8A
  8
0
  0
ENDSEC
  0
SECTION
  2
ENTITIES
  0
INSERT
  5
A
  8
0
  2
COTE
 10
0.0
 20
0.0
 30
0.0
  0
INSERT
  5
17
  8
0
  2
COTE
 10
284.010391
 20
6.373258
 30
0.0
  0
INSERT
  5
72
  8
0
  2
FOND
 10
0.0
 20
0.0
 30
0.0
  0
DIMENSION
  5
C775
  8
COTATION1
  2
*D4
 10
-252.562915
 20
67.728457
 30
0.0
 11
-252.562915
 21
114.478457
 31
0.0
 13
-296.312915
 23
161.228457
 33
0.0
 14
-275.062915
 24
67.728457
 34
0.0
 50
90.0
  0
DIMENSION
  5
C778
  8
COTATION1
  2
*D3
 10
-275.062915
 20
41.728457
 30
0.0
 11
-290.062915
 21
44.978457
 31
0.0
 13
-305.062915
 23
68.728457
 33
0.0
 14
-275.062915
 24
67.728457
 34
0.0
  0
LINE
  5
CFC3
  8
ALPHA
 10
-291.052597
 20
67.728457
 30
0.0
 11
-296.063992
 21
72.739154
 31
0.0
  0
POLYLINE
  5
CFC5
  8
ALPHA
 66
     1
 10
0.0
 20
0.0
 30
0.0
 70
   128
  0
VERTEX
  5
F160
  8
ALPHA
 10
-296.063992
 20
67.728457
 30
0.0
  0
VERTEX
  5
F161
  8
ALPHA
 10
-295.412882
 20
67.860016
 30
0.0
  0
VERTEX
  5
F162
  8
ALPHA
 10
-294.881145
 20
68.218626
 30
0.0
  0
VERTEX
  5
F163
  8
ALPHA
 10
-294.52262
 20
68.750192
 30
0.0
  0
VERTEX
  5
F164
  8
ALPHA
 10
-294.391147
 20
69.400617
 30
0.0
  0
VERTEX
  5
F165
  8
ALPHA
 10
-294.52262
 20
70.051834
 30
0.0
  0
VERTEX
  5
F166
  8
ALPHA
 10
-294.881145
 20
70.583807
 30
0.0
  0
VERTEX
  5
F167
  8
ALPHA
 10
-295.412882
 20
70.942568
 30
0.0
  0
VERTEX
  5
F168
  8
ALPHA
 10
-296.063992
 20
71.074147
 30
0.0
  0
SEQEND
  5
F169
  8
ALPHA
  0
LINE
  5
CFC7
  8
ALPHA
 10
-296.063992
 20
72.739154
 30
0.0
 11
-299.062915
 21
72.739154
 31
0.0
  0
POLYLINE
  5
CFC8
  8
ALPHA
 66
     1
 10
0.0
 20
0.0
 30
0.0
 70
   128
  0
VERTEX
  5
F16A
  8
ALPHA
 10
-296.063992
 20
71.074147
 30
0.0
  0
VERTEX
  5
F16B
  8
ALPHA
 10
-296.063992
 20
71.334305
 30
0.0
  0
VERTEX
  5
F16C
  8
ALPHA
 10
-296.063992
 20
71.906651
 30
0.0
  0
VERTEX
  5
F16D
  8
ALPHA
 10
-296.063992
 20
72.478997
 30
0.0
  0
VERTEX
  5
F16E
  8
ALPHA
 10
-296.063992
 20
72.739154
 30
0.0
  0
SEQEND
  5
F16F
  8
ALPHA
  0
LINE
  5
D2EA
  8
ALPHA
 10
-300.062915
 20
118.728457
 30
0.0
 11
-295.312915
 21
118.728457
 31
0.0
  0
LINE
  5
D2EB
  8
ALPHA
 10
-300.062915
 20
116.028457
 30
0.0
 11
-275.062915
 21
116.028457
 31
0.0
  0
TEXT
  5
D2ED
  8
AXE
 10
-295.039105
 20
51.728457
 30
0.0
 40
8.0
  1
Y
 72
     2
 11
-288.562915
 21
51.728457
 31
0.0
  0
LINE
  5
D2EF
  8
AXE
 10
-310.062915
 20
85.48308
 30
0.0
 11
-260.062915
 21
85.48308
 31
0.0
  0
ARC
  5
D2F0
  8
ALPHA
 10
-271.393328
 20
106.515651
 30
0.0
 40
33.671021
 50
166.958519
 51
180.528913
  0
LINE
  5
D2F1
  8
ALPHA
 10
-300.062915
 20
118.728457
 30
0.0
 11
-300.062915
 21
101.240446
 31
0.0
  0
LINE
  5
D2F2
  8
ALPHA
 10
-305.062915
 20
102.228457
 30
0.0
 11
-305.062915
 21
68.728457
 31
0.0
  0
LINE
  5
D2F8
  8
ALPHA
 10
-300.062915
 20
101.240446
 30
0.0
 11
-299.062915
 21
101.240446
 31
0.0
  0
LINE
  5
D2F9
  8
ALPHA
 10
-305.062915
 20
102.228457
 30
0.0
 11
-305.062915
 21
106.204829
 31
0.0
  0
ARC
  5
D300
  8
ALPHA
 10
-302.726087
 20
113.814173
 30
0.0
 40
1.5
 50
90.0
 51
168.480193
  0
LINE
  5
D301
  8
ALPHA
 10
-302.726087
 20
115.314173
 30
0.0
 11
-300.062915
 21
115.314173
 31
0.0
  0
LINE
  5
D304
  8
AXE
 10
-287.562915
 20
142.939778
 30
0.0
 11
-287.562915
 21
51.728457
 31
0.0
  0
LINE
  5
D305
  8
ALPHA
 10
-275.062915
 20
118.728457
 30
0.0
 11
-275.062915
 21
67.728457
 31
0.0
  0
TEXT
  5
D314
  8
AXE
 10
-266.539105
 20
86.48308
 30
0.0
 40
8.0
  1
Z
 72
     2
 11
-260.062915
 21
86.48308
 31
0.0
  0
LINE
  5
D322
  8
ALPHA
 10
-304.062915
 20
67.728457
 30
0.0
 11
-275.062915
 21
67.728457
 31
0.0
  0
ARC
  5
D326
  8
ALPHA
 10
-304.062915
 20
68.728457
 30
0.0
 40
1.0
 50
180.0
 51
270.0
  0
POLYLINE
  5
D328
  8
ALPHA
 66
     1
 10
0.0
 20
0.0
 30
0.0
 70
   128
210
0.0
220
0.0
230
-1.0
  0
VERTEX
  5
F170
  8
ALPHA
 10
294.622387
 20
96.899683
 30
0.0
  0
VERTEX
  5
F171
  8
ALPHA
 10
292.673062
 20
97.897186
 30
0.0
  0
VERTEX
  5
F172
  8
ALPHA
 10
290.504008
 20
98.741715
 30
0.0
  0
VERTEX
  5
F173
  8
ALPHA
 10
285.662969
 20
100.01785
 30
0.0
  0
VERTEX
  5
F174
  8
ALPHA
 10
280.41177
 20
100.820093
 30
0.0
  0
VERTEX
  5
F175
  8
ALPHA
 10
275.062915
 20
101.240446
 30
0.0
  0
SEQEND
  5
F176
  8
ALPHA
  0
POLYLINE
  5
D329
  8
ALPHA
 66
     1
 10
0.0
 20
0.0
 30
0.0
 70
   128
210
0.0
220
0.0
230
-1.0
  0
VERTEX
  5
F177
  8
ALPHA
 10
294.622387
 20
74.067849
 30
0.0
  0
VERTEX
  5
F178
  8
ALPHA
 10
297.472747
 20
76.04221
 30
0.0
  0
VERTEX
  5
F179
  8
ALPHA
 10
299.687695
 20
78.699012
 30
0.0
  0
VERTEX
  5
F17A
  8
ALPHA
 10
301.122673
 20
81.894212
 30
0.0
  0
VERTEX
  5
F17B
  8
ALPHA
 10
301.502499
 20
83.648698
 30
0.0
  0
VERTEX
  5
F17C
  8
ALPHA
 10
301.633123
 20
85.483766
 30
0.0
  0
VERTEX
  5
F17D
  8
ALPHA
 10
301.502499
 20
87.319284
 30
0.0
  0
VERTEX
  5
F17E
  8
ALPHA
 10
301.122673
 20
89.074091
 30
0.0
  0
VERTEX
  5
F17F
  8
ALPHA
 10
299.687695
 20
92.269548
 30
0.0
  0
VERTEX
  5
F180
  8
ALPHA
 10
297.472747
 20
94.926094
 30
0.0
  0
VERTEX
  5
F181
  8
ALPHA
 10
294.622387
 20
96.899683
 30
0.0
  0
SEQEND
  5
F182
  8
ALPHA
  0
CIRCLE
  5
D32A
  8
ALPHA
 10
-288.839729
 20
85.48308
 30
0.0
 40
9.25
  0
LINE
  5
D32B
  8
ALPHA
 10
-284.346829
 20
91.306171
 30
0.0
 11
-288.839729
 21
86.813271
 31
0.0
  0
LINE
  5
D32C
  8
ALPHA
 10
-287.510911
 20
85.483768
 30
0.0
 11
-283.01801
 21
89.976668
 31
0.0
  0
LINE
  5
D32D
  8
ALPHA
 10
-288.839729
 20
86.813271
 30
0.0
 11
-293.33263
 21
91.306171
 31
0.0
  0
LINE
  5
D32E
  8
ALPHA
 10
-294.661448
 20
89.976668
 30
0.0
 11
-290.169232
 21
85.483768
 31
0.0
  0
LINE
  5
D32F
  8
ALPHA
 10
-288.839729
 20
84.155634
 30
0.0
 11
-284.346829
 21
79.662729
 31
0.0
  0
LINE
  5
D330
  8
ALPHA
 10
-294.661448
 20
80.992236
 30
0.0
 11
-293.33263
 21
79.662729
 31
0.0
  0
LINE
  5
D331
  8
ALPHA
 10
-290.169232
 20
85.483768
 30
0.0
 11
-294.661448
 21
80.992236
 31
0.0
  0
LINE
  5
D332
  8
ALPHA
 10
-293.33263
 20
79.662729
 30
0.0
 11
-288.839729
 21
84.155634
 31
0.0
  0
LINE
  5
D333
  8
ALPHA
 10
-283.01801
 20
80.992236
 30
0.0
 11
-287.510911
 21
85.483768
 31
0.0
  0
LINE
  5
D334
  8
ALPHA
 10
-284.346829
 20
79.662729
 30
0.0
 11
-283.01801
 21
80.992236
 31
0.0
  0
LINE
  5
D335
  8
ALPHA
 10
-293.33263
 20
91.306171
 30
0.0
 11
-294.661448
 21
89.976668
 31
0.0
  0
LINE
  5
D336
  8
ALPHA
 10
-283.01801
 20
89.976668
 30
0.0
 11
-284.346829
 21
91.306171
 31
0.0
  0
POLYLINE
  5
D337
  8
ALPHA
 66
     1
 10
0.0
 20
0.0
 30
0.0
 70
   128
210
0.0
220
0.0
230
-1.0
  0
VERTEX
  5
F183
  8
ALPHA
 10
275.062915
 20
69.728457
 30
0.0
  0
VERTEX
  5
F184
  8
ALPHA
 10
280.41177
 20
70.148789
 30
0.0
  0
VERTEX
  5
F185
  8
ALPHA
 10
285.662969
 20
70.950881
 30
0.0
  0
VERTEX
  5
F186
  8
ALPHA
 10
290.504008
 20
72.22661
 30
0.0
  0
VERTEX
  5
F187
  8
ALPHA
 10
292.673062
 20
73.070798
 30
0.0
  0
VERTEX
  5
F188
  8
ALPHA
 10
294.622387
 20
74.067849
 30
0.0
  0
SEQEND
  5
F189
  8
ALPHA
  0
LINE
  5
D338
  8
ALPHA
 10
-299.062915
 20
77.7914
 30
0.0
 11
-299.062915
 21
72.739154
 31
0.0
  0
LINE
  5
D33B
  8
ALPHA
 10
-299.062915
 20
101.240446
 30
0.0
 11
-299.062915
 21
93.177135
 31
0.0
  0
LINE
  5
D541
  8
ALPHA
 10
-305.062915
 20
102.040446
 30
0.0
 11
-300.062915
 21
102.040446
 31
0.0
  0
LINE
  5
E659
  8
ALPHA
 10
-279.812915
 20
118.728457
 30
0.0
 11
-275.062915
 21
118.728457
 31
0.0
  0
ARC
  5
EA0F
  8
POINTILLE_COURT
 10
-277.562915
 20
71.128457
 30
0.0
 40
1.5
 50
90.0
 51
270.0
  0
LINE
  5
EA11
  8
POINTILLE_COURT
 10
-275.062915
 20
72.628457
 30
0.0
 11
-277.562915
 21
72.628457
 31
0.0
  0
LINE
  5
EA13
  8
POINTILLE_COURT
 10
-275.062915
 20
69.628457
 30
0.0
 11
-277.562915
 21
69.628457
 31
0.0
  0
DIMENSION
  5
EA14
  8
COTATION1
  2
*D5
 10
-275.062915
 20
51.728457
 30
0.0
 11
-262.170058
 21
54.978457
 31
0.0
 13
-279.062915
 23
71.128457
 33
0.0
 14
-275.062915
 24
67.728457
 34
0.0
  0
LINE
  5
EB66
  8
ALPHA
 10
-279.812915
 20
118.728457
 30
0.0
 11
-275.062915
 21
118.728457
 31
0.0
  0
LINE
  5
EC6D
  8
ALPHA
 10
-279.812915
 20
118.728457
 30
0.0
 11
-275.062915
 21
118.728457
 31
0.0
  0
DIMENSION
  5
EE05
  8
COTATION1
  2
*D6
 10
-275.062915
 20
176.228457
 30
0.0
 11
-259.431962
 21
179.478457
 31
0.0
 13
-287.562915
 23
142.939778
 33
0.0
 14
-275.062915
 24
118.728457
 34
0.0
  0
DIMENSION
  5
EE06
  8
COTATION1
  2
*D7
 10
-275.062915
 20
186.228457
 30
0.0
 11
-287.062915
 21
189.478457
 31
0.0
 13
-299.062915
 23
164.228457
 33
0.0
 14
-275.062915
 24
118.728457
 34
0.0
  0
DIMENSION
  5
EE07
  8
COTATION1
  2
*D8
 10
-275.062915
 20
196.228457
 30
0.0
 11
-295.062915
 21
199.478457
 31
0.0
 13
-315.062915
 23
164.228457
 33
0.0
 14
-275.062915
 24
118.728457
 34
0.0
  0
POLYLINE
  5
EE08
  8
ALPHA
 66
     1
 10
0.0
 20
0.0
 30
0.0
 70
   128
  0
VERTEX
  5
F18A
  8
ALPHA
 10
-287.563577
 20
124.733481
 30
0.0
  0
VERTEX
  5
F18B
  8
ALPHA
 10
-288.910631
 20
124.491306
 30
0.0
  0
VERTEX
  5
F18C
  8
ALPHA
 10
-290.177839
 20
123.852846
 30
0.0
  0
VERTEX
  5
F18D
  8
ALPHA
 10
-292.437137
 20
121.915448
 30
0.0
  0
VERTEX
  5
F18E
  8
ALPHA
 10
-294.270313
 20
119.978051
 30
0.0
  0
VERTEX
  5
F18F
  8
ALPHA
 10
-295.004869
 20
119.33959
 30
0.0
  0
VERTEX
  5
F190
  8
ALPHA
 10
-295.606208
 20
119.097416
 30
0.0
  0
SEQEND
  5
F191
  8
ALPHA
  0
POLYLINE
  5
EE09
  8
ALPHA
 66
     1
 10
0.0
 20
0.0
 30
0.0
 70
   128
  0
VERTEX
  5
F192
  8
ALPHA
 10
-279.520391
 20
134.378081
 30
0.0
  0
VERTEX
  5
F193
  8
ALPHA
 10
-279.520391
 20
134.202329
 30
0.0
  0
VERTEX
  5
F194
  8
ALPHA
 10
-279.520391
 20
133.705636
 30
0.0
  0
VERTEX
  5
F195
  8
ALPHA
 10
-279.520391
 20
131.932827
 30
0.0
  0
VERTEX
  5
F196
  8
ALPHA
 10
-279.520391
 20
129.426442
 30
0.0
  0
VERTEX
  5
F197
  8
ALPHA
 10
-279.520391
 20
126.553269
 30
0.0
  0
VERTEX
  5
F198
  8
ALPHA
 10
-279.520391
 20
123.680096
 30
0.0
  0
VERTEX
  5
F199
  8
ALPHA
 10
-279.520391
 20
121.173711
 30
0.0
  0
VERTEX
  5
F19A
  8
ALPHA
 10
-279.520391
 20
119.400902
 30
0.0
  0
VERTEX
  5
F19B
  8
ALPHA
 10
-279.520391
 20
118.90421
 30
0.0
  0
VERTEX
  5
F19C
  8
ALPHA
 10
-279.520391
 20
118.728457
 30
0.0
  0
SEQEND
  5
F19D
  8
ALPHA
  0
POLYLINE
  5
EE0A
  8
ALPHA
 66
     1
 10
0.0
 20
0.0
 30
0.0
 70
   128
  0
VERTEX
  5
F19E
  8
ALPHA
 10
-295.606208
 20
119.097416
 30
0.0
  0
VERTEX
  5
F19F
  8
ALPHA
 10
-306.748577
 20
119.097416
 30
0.0
  0
VERTEX
  5
F1A0
  8
ALPHA
 10
-306.748565
 20
119.291621
 30
0.0
  0
VERTEX
  5
F1A1
  8
ALPHA
 10
-306.748529
 20
119.840462
 30
0.0
  0
VERTEX
  5
F1A2
  8
ALPHA
 10
-306.748403
 20
121.799402
 30
0.0
  0
VERTEX
  5
F1A3
  8
ALPHA
 10
-306.748225
 20
124.568938
 30
0.0
  0
VERTEX
  5
F1A4
  8
ALPHA
 10
-306.748021
 20
127.743772
 30
0.0
  0
VERTEX
  5
F1A5
  8
ALPHA
 10
-306.747817
 20
130.918606
 30
0.0
  0
VERTEX
  5
F1A6
  8
ALPHA
 10
-306.747639
 20
133.688142
 30
0.0
  0
VERTEX
  5
F1A7
  8
ALPHA
 10
-306.747514
 20
135.647082
 30
0.0
  0
VERTEX
  5
F1A8
  8
ALPHA
 10
-306.747478
 20
136.195923
 30
0.0
  0
VERTEX
  5
F1A9
  8
ALPHA
 10
-306.747466
 20
136.390128
 30
0.0
  0
VERTEX
  5
F1AA
  8
ALPHA
 10
-281.531326
 20
136.390128
 30
0.0
  0
SEQEND
  5
F1AB
  8
ALPHA
  0
POLYLINE
  5
EE0B
  8
ALPHA
 66
     1
 10
0.0
 20
0.0
 30
0.0
 70
   128
  0
VERTEX
  5
F1AC
  8
ALPHA
 10
-308.757846
 20
119.602511
 30
0.0
  0
VERTEX
  5
F1AD
  8
ALPHA
 10
-308.757846
 20
120.072548
 30
0.0
  0
VERTEX
  5
F1AE
  8
ALPHA
 10
-308.757846
 20
121.361104
 30
0.0
  0
VERTEX
  5
F1AF
  8
ALPHA
 10
-308.757846
 20
123.285852
 30
0.0
  0
VERTEX
  5
F1B0
  8
ALPHA
 10
-308.757846
 20
125.664461
 30
0.0
  0
VERTEX
  5
F1B1
  8
ALPHA
 10
-308.757846
 20
131.053947
 30
0.0
  0
VERTEX
  5
F1B2
  8
ALPHA
 10
-308.757846
 20
136.070928
 30
0.0
  0
SEQEND
  5
F1B3
  8
ALPHA
  0
LINE
  5
EE0E
  8
ALPHA
 10
-300.062915
 20
118.728457
 30
0.0
 11
-275.062915
 21
118.728457
 31
0.0
  0
POLYLINE
  5
EE1F
  8
ALPHA
 66
     1
 10
0.0
 20
0.0
 30
0.0
 70
   128
  0
VERTEX
  5
F1B4
  8
ALPHA
 10
-306.748545
 20
119.602498
 30
0.0
  0
VERTEX
  5
F1B5
  8
ALPHA
 10
-307.062498
 20
119.6025
 30
0.0
  0
VERTEX
  5
F1B6
  8
ALPHA
 10
-307.753195
 20
119.602505
 30
0.0
  0
VERTEX
  5
F1B7
  8
ALPHA
 10
-308.443892
 20
119.602509
 30
0.0
  0
VERTEX
  5
F1B8
  8
ALPHA
 10
-308.757846
 20
119.602511
 30
0.0
  0
SEQEND
  5
F1B9
  8
ALPHA
  0
LINE
  5
EE20
  8
ALPHA
 10
-302.726087
 20
115.314173
 30
0.0
 11
-300.062915
 21
115.314173
 31
0.0
  0
ARC
  5
EE21
  8
ALPHA
 10
-302.726087
 20
113.814173
 30
0.0
 40
1.5
 50
90.0
 51
168.480193
  0
POLYLINE
  5
EE31
  8
ALPHA
 66
     1
 10
0.0
 20
0.0
 30
0.0
 70
   128
  0
VERTEX
  5
F1BA
  8
ALPHA
 10
-279.520391
 20
118.728457
 30
0.0
  0
VERTEX
  5
F1BB
  8
ALPHA
 10
-279.701042
 20
118.728457
 30
0.0
  0
VERTEX
  5
F1BC
  8
ALPHA
 10
-280.211578
 20
118.728457
 30
0.0
  0
VERTEX
  5
F1BD
  8
ALPHA
 10
-282.0338
 20
118.728457
 30
0.0
  0
VERTEX
  5
F1BE
  8
ALPHA
 10
-284.610044
 20
118.728457
 30
0.0
  0
VERTEX
  5
F1BF
  8
ALPHA
 10
-287.563299
 20
118.728457
 30
0.0
  0
VERTEX
  5
F1C0
  8
ALPHA
 10
-290.516555
 20
118.728457
 30
0.0
  0
VERTEX
  5
F1C1
  8
ALPHA
 10
-293.092799
 20
118.728457
 30
0.0
  0
VERTEX
  5
F1C2
  8
ALPHA
 10
-294.915021
 20
118.728457
 30
0.0
  0
VERTEX
  5
F1C3
  8
ALPHA
 10
-295.425557
 20
118.728457
 30
0.0
  0
VERTEX
  5
F1C4
  8
ALPHA
 10
-295.606208
 20
118.728457
 30
0.0
  0
SEQEND
  5
F1C5
  8
ALPHA
  0
LINE
  5
EE32
  8
ALPHA
 10
-295.606208
 20
118.728457
 30
0.0
 11
-295.606208
 21
119.097416
 31
0.0
  0
LINE
  5
EE33
  8
POINTILLE_COURT
 10
-301.812915
 20
161.228457
 30
0.0
 11
-296.312915
 21
161.228457
 31
0.0
  0
LINE
  5
EE34
  8
POINTILLE_COURT
 10
-301.812915
 20
142.228457
 30
0.0
 11
-296.312915
 21
142.228457
 31
0.0
  0
LINE
  5
EE35
  8
ALPHA
 10
-287.563578
 20
124.733481
 30
0.0
 11
-305.430307
 21
124.733481
 31
0.0
  0
DIMENSION
  5
EE36
  8
COTATION1
  2
*D9
 10
-312.312915
 20
186.228457
 30
0.0
 11
-332.431962
 21
186.228457
 31
0.0
 70
   128
 13
-317.812915
 23
161.228457
 33
0.0
 14
-312.312915
 24
161.228457
 34
0.0
  0
LINE
  5
EE37
  8
AXE
 10
-299.062915
 20
164.228457
 30
0.0
 11
-299.062915
 21
139.228457
 31
0.0
  0
LINE
  5
EE38
  8
ALPHA
 10
-312.312915
 20
161.228457
 30
0.0
 11
-312.312915
 21
141.642671
 31
0.0
  0
LINE
  5
EE39
  8
ALPHA
 10
-310.312915
 20
159.728457
 30
0.0
 11
-310.312915
 21
142.471098
 31
0.0
  0
LINE
  5
EE3A
  8
POINTILLE_COURT
 10
-303.812915
 20
159.728457
 30
0.0
 11
-303.812915
 21
142.471098
 31
0.0
  0
LINE
  5
EE3B
  8
POINTILLE_COURT
 10
-301.812915
 20
161.228457
 30
0.0
 11
-301.812915
 21
141.642671
 31
0.0
  0
LINE
  5
EE3C
  8
AXE
 10
-315.062915
 20
164.228457
 30
0.0
 11
-315.062915
 21
139.228457
 31
0.0
  0
LINE
  5
EE3D
  8
ALPHA
 10
-317.812915
 20
161.228457
 30
0.0
 11
-317.812915
 21
142.228457
 31
0.0
  0
LINE
  5
EE3E
  8
ALPHA
 10
-306.747467
 20
123.17897
 30
0.0
 11
-306.747467
 21
133.233092
 31
0.0
  0
LINE
  5
EE3F
  8
ALPHA
 10
-308.757844
 20
133.233092
 30
0.0
 11
-308.757844
 21
123.17897
 31
0.0
  0
LINE
  5
EE40
  8
ALPHA
 10
-308.757844
 20
121.670905
 30
0.0
 11
-308.757844
 21
134.741154
 31
0.0
  0
LINE
  5
EE41
  8
ALPHA
 10
-309.261273
 20
134.741154
 30
0.0
 11
-309.261273
 21
121.670905
 31
0.0
  0
LINE
  5
EE42
  8
ALPHA
 10
-309.261273
 20
121.670905
 30
0.0
 11
-308.757844
 21
121.670905
 31
0.0
  0
LINE
  5
EE43
  8
ALPHA
 10
-308.757844
 20
123.637389
 30
0.0
 11
-306.747467
 21
123.637389
 31
0.0
  0
LINE
  5
EE44
  8
ALPHA
 10
-308.757844
 20
124.280289
 30
0.0
 11
-306.747467
 21
124.280289
 31
0.0
  0
LINE
  5
EE45
  8
ALPHA
 10
-308.757844
 20
124.94486
 30
0.0
 11
-306.747467
 21
124.94486
 31
0.0
  0
LINE
  5
EE46
  8
ALPHA
 10
-308.757844
 20
125.846141
 30
0.0
 11
-306.747467
 21
125.846141
 31
0.0
  0
LINE
  5
EE47
  8
ALPHA
 10
-308.757844
 20
126.748534
 30
0.0
 11
-306.747467
 21
126.748534
 31
0.0
  0
LINE
  5
EE48
  8
ALPHA
 10
-308.757844
 20
127.649815
 30
0.0
 11
-306.747467
 21
127.649815
 31
0.0
  0
LINE
  5
EE49
  8
ALPHA
 10
-308.757844
 20
130.565921
 30
0.0
 11
-306.747467
 21
130.565921
 31
0.0
  0
LINE
  5
EE4A
  8
ALPHA
 10
-308.757844
 20
129.664641
 30
0.0
 11
-306.747467
 21
129.664641
 31
0.0
  0
LINE
  5
EE4B
  8
ALPHA
 10
-308.757844
 20
128.763357
 30
0.0
 11
-306.747467
 21
128.763357
 31
0.0
  0
LINE
  5
EE4C
  8
ALPHA
 10
-308.757844
 20
123.17897
 30
0.0
 11
-306.747467
 21
123.17897
 31
0.0
  0
LINE
  5
EE4D
  8
ALPHA
 10
-308.757844
 20
132.774673
 30
0.0
 11
-306.747467
 21
132.774673
 31
0.0
  0
LINE
  5
EE4E
  8
ALPHA
 10
-308.757844
 20
132.131773
 30
0.0
 11
-306.747467
 21
132.131773
 31
0.0
  0
LINE
  5
EE4F
  8
ALPHA
 10
-308.757844
 20
131.467202
 30
0.0
 11
-306.747467
 21
131.467202
 31
0.0
  0
POLYLINE
  5
EE50
  8
ALPHA
 66
     1
 10
0.0
 20
0.0
 30
0.0
 70
   128
  0
VERTEX
  5
F1C6
  8
ALPHA
 10
-311.070505
 20
132.111213
 30
0.0
  0
VERTEX
  5
F1C7
  8
ALPHA
 10
-310.787813
 20
132.129532
 30
0.0
  0
VERTEX
  5
F1C8
  8
ALPHA
 10
-310.16589
 20
132.169835
 30
0.0
  0
VERTEX
  5
F1C9
  8
ALPHA
 10
-309.543966
 20
132.210138
 30
0.0
  0
VERTEX
  5
F1CA
  8
ALPHA
 10
-309.261274
 20
132.228457
 30
0.0
  0
SEQEND
  5
F1CB
  8
ALPHA
  0
POLYLINE
  5
EE51
  8
ALPHA
 66
     1
 10
0.0
 20
0.0
 30
0.0
 70
   128
210
0.0
220
0.0
230
-1.0
  0
VERTEX
  5
F1CC
  8
ALPHA
 10
311.070505
 20
124.300848
 30
0.0
  0
VERTEX
  5
F1CD
  8
ALPHA
 10
311.208925
 20
124.515689
 30
0.0
  0
VERTEX
  5
F1CE
  8
ALPHA
 10
311.522326
 20
125.157329
 30
0.0
  0
VERTEX
  5
F1CF
  8
ALPHA
 10
311.857919
 20
126.221445
 30
0.0
  0
VERTEX
  5
F1D0
  8
ALPHA
 10
312.062915
 20
127.703713
 30
0.0
  0
SEQEND
  5
F1D1
  8
ALPHA
  0
LINE
  5
EE52
  8
ALPHA
 10
-312.062915
 20
127.703713
 30
0.0
 11
-311.152187
 21
127.703713
 31
0.0
  0
LINE
  5
EE53
  8
ALPHA
 10
-311.152187
 20
127.703713
 30
0.0
 11
-311.152187
 21
128.709459
 31
0.0
  0
POLYLINE
  5
EE54
  8
ALPHA
 66
     1
 10
0.0
 20
0.0
 30
0.0
 70
   128
  0
VERTEX
  5
F1D2
  8
ALPHA
 10
-309.261274
 20
124.184715
 30
0.0
  0
VERTEX
  5
F1D3
  8
ALPHA
 10
-309.543966
 20
124.202861
 30
0.0
  0
VERTEX
  5
F1D4
  8
ALPHA
 10
-310.16589
 20
124.242781
 30
0.0
  0
VERTEX
  5
F1D5
  8
ALPHA
 10
-310.787813
 20
124.282702
 30
0.0
  0
VERTEX
  5
F1D6
  8
ALPHA
 10
-311.070505
 20
124.300848
 30
0.0
  0
SEQEND
  5
F1D7
  8
ALPHA
  0
POLYLINE
  5
EE55
  8
ALPHA
 66
     1
 10
0.0
 20
0.0
 30
0.0
 70
   128
  0
VERTEX
  5
F1D8
  8
ALPHA
 10
-309.261274
 20
132.228457
 30
0.0
  0
VERTEX
  5
F1D9
  8
ALPHA
 10
-309.261274
 20
131.882828
 30
0.0
  0
VERTEX
  5
F1DA
  8
ALPHA
 10
-309.261274
 20
130.971622
 30
0.0
  0
VERTEX
  5
F1DB
  8
ALPHA
 10
-309.261274
 20
128.206586
 30
0.0
  0
VERTEX
  5
F1DC
  8
ALPHA
 10
-309.261274
 20
125.44155
 30
0.0
  0
VERTEX
  5
F1DD
  8
ALPHA
 10
-309.261274
 20
124.530344
 30
0.0
  0
VERTEX
  5
F1DE
  8
ALPHA
 10
-309.261274
 20
124.184715
 30
0.0
  0
SEQEND
  5
F1DF
  8
ALPHA
  0
LINE
  5
EE56
  8
ALPHA
 10
-311.152187
 20
128.709459
 30
0.0
 11
-312.062915
 21
128.709459
 31
0.0
  0
POLYLINE
  5
EE57
  8
ALPHA
 66
     1
 10
0.0
 20
0.0
 30
0.0
 70
   128
210
0.0
220
0.0
230
-1.0
  0
VERTEX
  5
F1E0
  8
ALPHA
 10
312.062915
 20
128.709459
 30
0.0
  0
VERTEX
  5
F1E1
  8
ALPHA
 10
311.857919
 20
130.191553
 30
0.0
  0
VERTEX
  5
F1E2
  8
ALPHA
 10
311.522326
 20
131.255287
 30
0.0
  0
VERTEX
  5
F1E3
  8
ALPHA
 10
311.208925
 20
131.896545
 30
0.0
  0
VERTEX
  5
F1E4
  8
ALPHA
 10
311.070505
 20
132.111213
 30
0.0
  0
SEQEND
  5
F1E5
  8
ALPHA
  0
ARC
  5
EE58
  8
ALPHA
 10
-311.312915
 20
141.642671
 30
0.0
 40
1.0
 50
180.0
 51
225.0
  0
LINE
  5
EE59
  8
ALPHA
 10
-317.812915
 20
142.228457
 30
0.0
 11
-312.312915
 21
142.228457
 31
0.0
  0
LINE
  5
EE5A
  8
POINTILLE_COURT
 10
-303.710129
 20
138.689226
 30
0.0
 11
-302.105808
 21
140.935564
 31
0.0
  0
LINE
  5
EE5B
  8
POINTILLE_COURT
 10
-305.403552
 20
139.819281
 30
0.0
 11
-304.105808
 21
141.763991
 31
0.0
  0
LINE
  5
EE5C
  8
ALPHA
 10
-308.757844
 20
134.741154
 30
0.0
 11
-309.261273
 21
134.741154
 31
0.0
  0
LINE
  5
EE5D
  8
ALPHA
 10
-306.747467
 20
133.233092
 30
0.0
 11
-308.757844
 21
133.233092
 31
0.0
  0
LINE
  5
EE5E
  8
ALPHA
 10
-309.050739
 20
136.778035
 30
0.0
 11
-312.020022
 21
140.935564
 31
0.0
  0
ARC
  5
EE5F
  8
ALPHA
 10
-309.757846
 20
136.070928
 30
0.0
 40
1.0
 50
360.0
 51
45.0
  0
LINE
  5
EE60
  8
ALPHA
 10
-307.636525
 20
138.192248
 30
0.0
 11
-310.020022
 21
141.763991
 31
0.0
  0
ARC
  5
EE61
  8
ALPHA
 10
-309.312915
 20
142.471098
 30
0.0
 40
1.0
 50
180.0
 51
225.0
  0
ARC
  5
EE62
  8
ALPHA
 10
-309.816765
 20
136.031559
 30
0.0
 40
3.069531
 50
0.73486
 51
44.741953
  0
ARC
  5
EE63
  8
POINTILLE_COURT
 10
-304.812915
 20
142.471098
 30
0.0
 40
1.0
 50
315.0
 51
0.0
  0
ARC
  5
EE64
  8
POINTILLE_COURT
 10
-302.812915
 20
141.642671
 30
0.0
 40
1.0
 50
315.0
 51
0.0
  0
LINE
  5
EE66
  8
ALPHA
 10
-312.312915
 20
159.728457
 30
0.0
 11
-310.312915
 21
159.728457
 31
0.0
  0
LINE
  5
EE67
  8
ALPHA
 10
-317.812915
 20
161.228457
 30
0.0
 11
-312.312915
 21
161.228457
 31
0.0
  0
LINE
  5
EE68
  8
POINTILLE_COURT
 10
-301.812915
 20
159.728457
 30
0.0
 11
-303.812915
 21
159.728457
 31
0.0
  0
LINE
  5
EE69
  8
POINTILLE_COURT
 10
-296.312915
 20
161.228457
 30
0.0
 11
-296.312915
 21
142.228457
 31
0.0
  0
POLYLINE
  5
EE6A
  8
ALPHA
 66
     1
 10
0.0
 20
0.0
 30
0.0
 70
   128
210
0.0
220
0.0
230
-1.0
  0
VERTEX
  5
F1E6
  8
ALPHA
 10
281.531326
 20
136.390128
 30
0.0
  0
VERTEX
  5
F1E7
  8
ALPHA
 10
280.748045
 20
136.232103
 30
0.0
  0
VERTEX
  5
F1E8
  8
ALPHA
 10
280.108905
 20
135.801058
 30
0.0
  0
VERTEX
  5
F1E9
  8
ALPHA
 10
279.678242
 20
135.161537
 30
0.0
  0
VERTEX
  5
F1EA
  8
ALPHA
 10
279.520391
 20
134.378081
 30
0.0
  0
SEQEND
  5
F1EB
  8
ALPHA
  0
DIMENSION
  5
EF7E
  8
COTATION1
  2
*D10
 10
-275.062915
 20
31.728457
 30
0.0
 11
-293.562915
 21
34.978457
 31
0.0
 13
-312.062915
 23
127.703713
 33
0.0
 14
-275.062915
 24
57.728457
 34
0.0
  0
VIEWPORT
  5
494D
 67
     1
  8
0
 10
4.995325
 20
6.556512
 30
0.0
 40
22.70986
 41
13.988421
 68
    -1
 69
     1
1001
ACAD
1000
MVIEW
1002
{
1070
    16
1010
0.0
1020
0.0
1030
0.0
1010
0.0
1020
0.0
1030
1.0
1040
0.0
1040
13.988421
1040
4.995325
1040
6.556512
1040
50.0
1040
0.0
1040
0.0
1070
     0
1070
   100
1070
     1
1070
     1
1070
     0
1070
     0
1070
     0
1070
     0
1040
0.0
1040
0.0
1040
0.0
1040
10.0
1040
10.0
1040
10.0
1040
10.0
1070
     0
1002
{
1002
}
1002
}
  0
ENDSEC
  0
EOF
